[4K帅哥MV] 张杰_他不懂4K视频MV[911MB/百度云盘]

[复制链接]
小米粒 发表于 2018-7-15 01:13 | 显示全部楼层 |阅读模式
张杰_他不懂4K视频MV[911MB/百度云盘]
3 g2 ]2 ?  D9 ^' B8 r! f* z& ?6 @* Y% P7 M! G- Z* B* o' G
1 b; ]% @- x/ N" R7 W
General
9 x$ D9 \7 l5 T! x7 U. P8 RComplete name                  : D:\BaiduNetdiskDownload\张杰_他不懂4K视频MV.mp4
7 b0 b- z" G/ R( ZFormat                         : MPEG-44 V% z9 j& V. ^5 t& q) S+ o
Format profile                 : Base Media / Version 2
5 C4 }1 v  m/ ]: ^! jCodec ID                       : mp42 (mp42/mp41/M4V /M4A /isom/avc1/iso2)5 w) f" A% Q0 l# x
File size                      : 912 MiB6 s8 `9 f# h4 w; p  r
Duration                       : 5 min 46 s
) H) s" E: _5 ?  A8 a, m% K& J; IOverall bit rate mode          : Variable! ~! y2 I2 A+ H
Overall bit rate               : 22.1 Mb/s
9 T6 A! ^4 J9 |1 f9 [Encoded date                   : UTC 2014-07-16 14:04:01: `  u* @* ^2 i
Tagged date                    : UTC 2014-07-16 14:04:012 J( r2 Z4 q* w! s
Writing application            : x264 0.128.2216+688+32 a17ff54 tMod [[email protected]:2:0 X86_64]: @2 }; N$ B( |$ r* j
! m6 H2 l1 A# H9 ?/ z
Video5 s3 D( e6 {7 E
ID                             : 1
8 w  m9 R, ~0 S( uFormat                         : AVC
% F, A; C! R$ `9 D. q* d! OFormat/Info                    : Advanced Video Codec
  h1 {( M" H. ?8 oFormat profile                 : [email protected]
& G5 p7 w; Z2 }/ ]. J. _: p0 PFormat settings                : CABAC / 4 Ref Frames
% b, ]2 H5 a/ e: a, IFormat settings, CABAC         : Yes
: N  [& J4 Z+ gFormat settings, ReFrames      : 4 frames" k$ }$ Y3 T" S; Y, I. _+ t) T
Codec ID                       : avc19 Z- }7 |7 m0 g4 X! C
Codec ID/Info                  : Advanced Video Coding% C/ F! `; k& L& W) T2 P
Duration                       : 5 min 45 s+ V1 v' @5 `- S0 o* h6 I2 F3 p
Bit rate                       : 21.9 Mb/s/ _5 {( i6 z& u$ s% Z$ G  D
Width                          : 3 840 pixels* E) F% E$ y' Q8 s9 s
Height                         : 2 160 pixels
2 `7 H) x* G7 H: l+ ~+ kDisplay aspect ratio           : 1.8969 a2 z! Q+ E# h: \
Frame rate mode                : Constant
* ?7 m4 C2 F: f5 W# EFrame rate                     : 25.000 FPS- W5 M! Q3 D3 I& @, k% g. T
Color space                    : YUV
7 _2 b8 Y2 r, p3 ~- vChroma subsampling             : 4:2:0
1 z$ W" Y: X4 v7 x& BBit depth                      : 8 bits
+ L* j+ H& r- D0 w2 H" _% [Scan type                      : Progressive6 Y8 b9 U) `0 R5 o; r4 X3 \5 S
Bits/(Pixel*Frame)             : 0.106
$ T0 D( E3 W; k0 W) q- `0 t/ SStream size                    : 905 MiB (99%)
# I1 L9 u7 _7 T& KWriting library                : x264 core 128 r2216+688+32 a17ff54 tMod [[email protected]:2:0 X86_64]* X! Z8 O; o* i7 m
Encoding settings              : cabac=1 / ref=3 / deblock=1:1:1 / analyse=0x3:0x133 / me=umh / subme=10 / psy=1 / fade_compensate=0.00 / psy_rd=0.30:0.00 / mixed_ref=1 / me_range=24 / chroma_me=1 / trellis=2 / 8x8dct=1 / cqm=0 / deadzone=21,11 / fast_pskip=1 / chroma_qp_offset=-2 / threads=12 / lookahead_threads=2 / sliced_threads=0 / nr=0 / decimate=1 / interlaced=0 / bluray_compat=0 / constrained_intra=0 / fgo=0 / bframes=3 / b_pyramid=2 / b_adapt=2 / b_bias=0 / direct=3 / weightb=1 / open_gop=0 / weightp=2 / keyint=250 / keyint_min=1 / scenecut=60 / intra_refresh=0 / rc_lookahead=60 / rc=crf / mbtree=1 / crf=16.0000 / qcomp=0.50 / qpmin=0 / qpmax=69 / qpstep=4 / ip_ratio=1.40 / aq=2:0.80
) b' S6 Q/ }; @: w0 K) pEncoded date                   : UTC 2014-07-16 14:04:01& F+ R8 G( {% [8 [5 S# B  }$ Q, U
Tagged date                    : UTC 2014-07-16 14:04:01/ X$ x' s3 X6 r, X( i7 g
Color range                    : Limited+ j/ s, N( ~7 K" D, t" Y
Matrix coefficients            : BT.709' \- E+ K9 x. @3 S0 l
4 x7 _) a+ r& Y; [9 X2 j. S. Y
Audio
9 t: v( o. ^2 v) h3 X" x( o# t3 GID                             : 2
9 h, o  U7 q3 l+ Z% [' _4 YFormat                         : AAC
* h% _0 ~) G8 W( G7 w/ VFormat/Info                    : Advanced Audio Codec
$ ?1 c: V; z% I; FFormat profile                 : LC9 Q( P% \  u! }0 H. Q9 I) u
Codec ID                       : mp4a-40-2/ T% }' f# \/ b  {( A% e  \
Duration                       : 5 min 46 s4 Z- y, |: i" N3 t' b. A+ S
Source duration                : 5 min 46 s9 y5 x3 v# g# c8 ~' d# S
Bit rate mode                  : Variable
7 d# Y& n6 ^# ?" P0 mBit rate                       : 164 kb/s
0 J+ y* G$ H) S( yChannel(s)                     : 2 channels
' T& K- b, w: R0 M) N! HChannel positions              : Front: L R0 W( C* G  v4 N6 P7 `
Sampling rate                  : 48.0 kHz
' {( x4 _/ X! YFrame rate                     : 46.875 FPS (1024 SPF)
( p/ y! d5 u/ V8 D4 l& XCompression mode               : Lossy, [/ h0 s. `; P6 t
Stream size                    : 6.78 MiB (1%)  }/ ?; L2 y7 p2 I
Source stream size             : 6.78 MiB (1%)+ B' z; y* E2 k* W
Encoded date                   : UTC 2014-07-16 14:04:01
4 B4 N+ Q" j# s  BTagged date                    : UTC 2014-07-16 14:04:017 r+ S, l' N7 \; [( j' S+ e
' z6 s( @: D4 d7 i

1 s, ~! k' a1 p# g9 y 百度云下载.txt (79 Bytes, 下载次数: 14, 售价: 10 金币)
- z% [; D; X( d' D5 N, _$ v5 `& u5 L3 z7 M0 N! g0 q
4 s+ [3 C4 R2 L- w
热门电影
关闭

站长通知上一条 /1 下一条

Copyright   ©2015-2016  4k群  Powered by©Discuz!  技术支持:4K群