森林之子毛克利4k Mowgli.Legend.of.the.Jungle.2018.2160p电影

[复制链接]
朱古力小酥酥 发表于 2020-9-9 17:35 | 显示全部楼层 |阅读模式
电影频道
电影封面:
片  名: 森林之子毛克利4k
国  家: 美国   
电影分类: 冒险   剧情   
分 辨 率: 4K(3840x2160)    
画质标准: 其他 
电影声道: 其他
资源大小: 14.55 GB
剧情简介: 故事讲述了人类男孩毛克利在一片印度丛林中被狼群抚养长大。在棕熊巴鲁(Baloo)和黑豹巴希拉(Bagheera)的监护下,毛克利学习残酷的森林守则,最终被动物们接受并成为其中一员。尽管如此,他仍需要面对可怕的老虎谢利·可汗(Shere Khan),毛克利的人类身世更是潜伏在森林中的巨大威胁。
毛克利 / 毛克利:魔森丛现(港) / 丛林之书:起源 / 森林王子 / 莫格利 / Jungle Book: Origins / The Jungle Book/森林之子毛克利4k Mowgli.Legend.of.the.Jungle.2018.2160p.WEBRip.x265.10bit.SDR.DDP5.1.Atmos-4k电影信息
  1. Video
  2. ID : 1
  3. Format : HEVC
  4. Format/Info : High Efficiency Video Coding
  5. Format profile : Main 10@L5.1@High
  6. Codec ID : V_MPEGH/ISO/HEVC
  7. Duration : 1 h 44 min
  8. Bit rate : 19.4 Mb/s
  9. Width : 3 840 pixels
  10. Height : 1 604 pixels
  11. Display aspect ratio : 2.40:1
  12. Frame rate mode : Constant
  13. Frame rate : 23.976 (24000/1001) FPS
  14. Color space : YUV
  15. Chroma subsampling : 4:2:0 (Type 2)
  16. Bit depth : 10 bits
  17. Bits/(Pixel*Frame) : 0.131
  18. Stream size : 14.2 GiB (98%)
  19. Writing library : x265 2.9+9-f74003e88622:[Windows][GCC 6.3.0][64 bit] 10bit
  20. Encoding settings : cpuid=1176575 / frame-threads=4 / numa-pools=28 / wpp / no-pmode / no-pme / no-psnr / no-ssim / log-level=2 / input-csp=1 / input-res=3840x1604 / interlace=0 / total-frames=120 / level-idc=51 / high-tier=1 / uhd-bd=0 / ref=4 / no-allow-non-conformance / no-repeat-headers / annexb / no-aud / no-hrd / info / hash=0 / no-temporal-layers / open-gop / min-keyint=23 / keyint=250 / gop-lookahead=0 / bframes=11 / b-adapt=2 / b-pyramid / bframe-bias=0 / rc-lookahead=25 / lookahead-slices=4 / scenecut=40 / radl=0 / no-intra-refresh / ctu=64 / min-cu-size=8 / rect / no-amp / max-tu-size=32 / tu-inter-depth=1 / tu-intra-depth=1 / limit-tu=0 / rdoq-level=2 / dynamic-rd=0.00 / no-ssim-rd / signhide / no-tskip / nr-intra=0 / nr-inter=0 / no-constrained-intra / strong-intra-smoothing / max-merge=3 / limit-refs=3 / limit-modes / me=2 / subme=6 / merange=57 / temporal-mvp / weightp / no-weightb / no-analyze-src-pics / deblock=-3:-3 / no-sao / no-sao-non-deblock / rd=4 / no-early-skip / rskip / no-fast-intra / no-tskip-fast / no-cu-lossless / no-b-intra / no-splitrd-skip / rdpenalty=0 / psy-rd=4.00 / psy-rdoq=10.00 / no-rd-refine / no-lossless / cbqpoffs=0 / crqpoffs=0 / rc=crf / crf=17.0 / qcomp=0.60 / qpstep=1 / stats-write=0 / stats-read=0 / vbv-maxrate=160000 / vbv-bufsize=160000 / vbv-init=0.9 / crf-max=0.0 / crf-min=0.0 / ipratio=1.25 / pbratio=1.20 / aq-mode=3 / aq-strength=0.75 / cutree / zone-count=0 / no-strict-cbr / qg-size=32 / no-rc-grain / qpmax=69 / qpmin=0 / no-const-vbv / sar=1 / overscan=0 / videoformat=5 / range=0 / colorprim=2 / transfer=2 / colormatrix=1 / chromaloc=1 / chromaloc-top=2 / chromaloc-bottom=2 / display-window=0 / max-cll=0,0 / min-luma=0 / max-luma=1023 / log2-max-poc-lsb=8 / vui-timing-info / vui-hrd-info / slices=1 / no-opt-qp-pps / no-opt-ref-list-length-pps / no-multi-pass-opt-rps / scenecut-bias=0.05 / no-opt-cu-delta-qp / no-aq-motion / no-hdr / no-hdr-opt / no-dhdr10-opt / no-idr-recovery-sei / analysis-reuse-level=5 / scale-factor=0 / refine-intra=0 / refine-inter=0 / refine-mv=0 / no-limit-sao / ctu-info=0 / no-lowpass-dct / refine-mv-type=0 / copy-pic=1 / max-ausize-factor=1.0 / no-dynamic-refine / no-single-sei
  21. Default : Yes
  22. Forced : No
  23. Color range : Limited
  24. Matrix coefficients : BT.709

  25. Audio
  26. ID : 2
  27. Format : E-AC-3 JOC
  28. Format/Info : Enhanced AC-3 with Joint Object Coding
  29. Commercial name : Dolby Digital Plus with Dolby Atmos
  30. Codec ID : A_EAC3
  31. Duration : 1 h 44 min
  32. Bit rate mode : Constant
  33. Bit rate : 448 kb/s
  34. Channel(s) : 6 channels
  35. Channel layout : L R C LFE Ls Rs
  36. Sampling rate : 48.0 kHz
  37. Frame rate : 31.250 FPS (1536 SPF)
  38. Compression mode : Lossy
  39. Stream size : 336 MiB (2%)
  40. Title : English
  41. Language : English
  42. Service kind : Complete Main
  43. Default : No
  44. Forced : No
  45. Complexity index : 16
  46. Number of dynamic objects : 15
  47. Bed channel count : 1 channel
  48. Bed channel configuration : LFE

  49. Text #1
  50. ID : 3
  51. Format : UTF-8
  52. Codec ID : S_TEXT/UTF8
  53. Codec ID/Info : UTF-8 Plain Text
  54. Duration : 33 min 36 s
  55. Bit rate : 1 b/s
  56. Count of elements : 14
  57. Stream size : 428 Bytes (0%)
  58. Title : French (Forced)
  59. Language : French
  60. Default : Yes
  61. Forced : Yes

  62. Text #2
  63. ID : 4
  64. Format : UTF-8
  65. Codec ID : S_TEXT/UTF8
  66. Codec ID/Info : UTF-8 Plain Text
  67. Duration : 1 h 43 min
  68. Bit rate : 25 b/s
  69. Count of elements : 716
  70. Stream size : 19.4 KiB (0%)
  71. Title : French
  72. Language : French
  73. Default : No
  74. Forced : No

  75. Text #3
  76. ID : 5
  77. Format : UTF-8
  78. Codec ID : S_TEXT/UTF8
  79. Codec ID/Info : UTF-8 Plain Text
  80. Duration : 1 h 34 min
  81. Bit rate : 24 b/s
  82. Count of elements : 706
  83. Stream size : 17.3 KiB (0%)
  84. Title : English
  85. Language : English
  86. Default : No
  87. Forced : No

  88. Text #4
  89. ID : 6
  90. Format : UTF-8
  91. Codec ID : S_TEXT/UTF8
  92. Codec ID/Info : UTF-8 Plain Text
  93. Duration : 1 h 43 min
  94. Bit rate : 37 b/s
  95. Count of elements : 1262
  96. Stream size : 28.8 KiB (0%)
  97. Title : English (SDH)
  98. Language : English
  99. Default : No
  100. Forced : No
复制代码

毛克利 / 毛克利:魔森丛现(港) / 丛林之书:起源 / 森林王子 / 莫格利 / Jungle Book: Origins / The Jungle Book/森林之子毛克利4k Mowgli.Legend.of.the.Jungle.2018.2160p.WEBRip.x265.10bit.SDR.DDP5.1.Atmos-4k电影下载

森林之子毛克利4k Mowgli.Legend.of.the.Jungle.2018.2160p.WEBRip.x265.10bit.SDR.DDP5.1.Atmos【14.55 GB】
森林之子毛克利4k Mowgli.Legend.of.the.Jungle.2018.2160p.WEBRip.x265.10bit.SDR.DD.torrent (73.29 KB, 售价: 10 金币)
热门电影
关闭

站长通知上一条 /1 下一条

Copyright   ©2015-2016  4k群  Powered by©Discuz!  技术支持:4K群