夺命煞星宝莱坞之国王归来4k电影下载

[复制链接]
朱古力小酥酥 发表于 2020-9-11 21:54 | 显示全部楼层 |阅读模式
电影频道
电影封面:
片  名: 夺命煞星宝莱坞之国王归来4k
国  家: 印度   
电影分类: 动作   冒险   惊悚   喜剧   歌舞   爱情片   
分 辨 率: 4K(3840x2160)    
画质标准: 其他 
电影声道: 5.1声道   
资源大小: 24.2 GB
剧情简介: 一名国际性匪徒先是自投罗网,而后又戏剧性的挣脱法网--不料面临的竟是欺骗和背叛.
  业已称霸亚洲黑社会的Don将自己的目光投向对欧洲黑社会的控制。届时他将成为现有的欧洲黑社会和所有执法机构的幕后主宰。为了达成自己的目标,Don将亲赴欧洲采取行动。在由吉隆坡前往柏林的旅途中,他必须避开一切可能出现的暗杀和拘捕行动,经过一系列的激烈角逐,Don最终是否能够统领整个欧洲黑社会呢?
追踪再现2 / Don: The King Is Back / Don 2: The Chase Continues/夺命煞星宝莱坞之国王归来4k.Don-2TheKingisBack2011.MULTi.2160p.SDR.HEVC.DTS-HDMA.5.1-4k电影信息
  1. General
  2. Unique ID                      : 325194859371962472204174993772451968254 (0xF4A6407232BB9C406381DB088197B4FE)
  3. Complete name                  : F:\Hao4k\Don - 2 The King is Back 2011.MULTi.2160p.SDR.HEVC.DTS-HDMA.5.1-Hao4K.mkv
  4. Format                         : Matroska
  5. Format version                 : Version 4
  6. File size                      : 24.3 GiB
  7. Duration                       : 2 h 23 min
  8. Overall bit rate mode          : Variable
  9. Overall bit rate               : 24.2 Mb/s
  10. Encoded date                   : UTC 2019-03-30 12:33:50
  11. Writing application            : mkvmerge v32.0.0 ('Astral Progressions') 64-bit
  12. Writing library                : libebml v1.3.7 + libmatroska v1.5.0

  13. Video
  14. ID                             : 1
  15. Format                         : HEVC
  16. Format/Info                    : High Efficiency Video Coding
  17. Format profile                 : Main 10@L5.1@High
  18. Codec ID                       : V_MPEGH/ISO/HEVC
  19. Duration                       : 2 h 23 min
  20. Bit rate                       : 20.1 Mb/s
  21. Width                          : 3 840 pixels
  22. Height                         : 1 712 pixels
  23. Display aspect ratio           : 2.25:1
  24. Frame rate mode                : Constant
  25. Frame rate                     : 24.000 FPS
  26. Color space                    : YUV
  27. Chroma subsampling             : 4:2:0
  28. Bit depth                      : 10 bits
  29. Bits/(Pixel*Frame)             : 0.128
  30. Stream size                    : 20.2 GiB (83%)
  31. Language                       : English
  32. Default                        : Yes
  33. Forced                         : No
  34. Color range                    : Limited
  35. Color primaries                : BT.709
  36. Transfer characteristics       : BT.709
  37. Matrix coefficients            : BT.709

  38. Audio #1
  39. ID                             : 2
  40. Format                         : DTS XLL
  41. Format/Info                    : Digital Theater Systems
  42. Commercial name                : DTS-HD Master Audio
  43. Codec ID                       : A_DTS
  44. Duration                       : 2 h 23 min
  45. Bit rate mode                  : Variable
  46. Bit rate                       : 2 028 kb/s
  47. Channel(s)                     : 6 channels
  48. Channel layout                 : C L R Ls Rs LFE
  49. Sampling rate                  : 48.0 kHz
  50. Frame rate                     : 93.750 FPS (512 SPF)
  51. Bit depth                      : 16 bits
  52. Compression mode               : Lossless
  53. Stream size                    : 2.04 GiB (8%)
  54. Language                       : German
  55. Default                        : Yes
  56. Forced                         : No

  57. Audio #2
  58. ID                             : 3
  59. Format                         : DTS XLL
  60. Format/Info                    : Digital Theater Systems
  61. Commercial name                : DTS-HD Master Audio
  62. Codec ID                       : A_DTS
  63. Duration                       : 2 h 23 min
  64. Bit rate mode                  : Variable
  65. Bit rate                       : 2 011 kb/s
  66. Channel(s)                     : 6 channels
  67. Channel layout                 : C L R Ls Rs LFE
  68. Sampling rate                  : 48.0 kHz
  69. Frame rate                     : 93.750 FPS (512 SPF)
  70. Bit depth                      : 16 bits
  71. Compression mode               : Lossless
  72. Stream size                    : 2.02 GiB (8%)
  73. Language                       : Hindi
  74. Default                        : No
  75. Forced                         : No

  76. Text #1
  77. ID                             : 4
  78. Format                         : PGS
  79. Muxing mode                    : zlib
  80. Codec ID                       : S_HDMV/PGS
  81. Codec ID/Info                  : Picture based subtitle format used on BDs/HD-DVDs
  82. Duration                       : 2 h 16 min
  83. Bit rate                       : 1 797 b/s
  84. Count of elements              : 244
  85. Stream size                    : 1.76 MiB (0%)
  86. Language                       : English
  87. Default                        : Yes
  88. Forced                         : No

  89. Text #2
  90. ID                             : 5
  91. Format                         : PGS
  92. Muxing mode                    : zlib
  93. Codec ID                       : S_HDMV/PGS
  94. Codec ID/Info                  : Picture based subtitle format used on BDs/HD-DVDs
  95. Duration                       : 2 h 22 min
  96. Bit rate                       : 23.7 kb/s
  97. Count of elements              : 2570
  98. Stream size                    : 24.2 MiB (0%)
  99. Language                       : German
  100. Default                        : No
  101. Forced                         : No

  102. Menu
  103. 00:00:00.000                   : :Chapter 01
  104. 00:07:15.583                   : :Chapter 02
  105. 00:23:39.375                   : :Chapter 03
  106. 00:28:42.791                   : :Chapter 04
  107. 00:47:13.000                   : :Chapter 05
  108. 01:06:14.541                   : :Chapter 06
  109. 01:09:03.458                   : :Chapter 07
  110. 01:12:30.791                   : :Chapter 08
  111. 01:16:27.541                   : :Chapter 09
  112. 01:41:15.958                   : :Chapter 10
  113. 01:59:32.083                   : :Chapter 11
  114. 02:08:19.375                   : :Chapter 12
  115. 02:14:37.916                   : :Chapter 13
复制代码

追踪再现2 / Don: The King Is Back / Don 2: The Chase Continues/夺命煞星宝莱坞之国王归来4k.Don-2TheKingisBack2011.MULTi.2160p.SDR.HEVC.DTS-HDMA.5.1-4K电影下载

夺命煞星宝莱坞之国王归来4k.Don-2TheKingisBack2011.MULTi.2160p.SDR.HEVC.DTS-HDMA.5.1【24.2GB】
夺命煞星宝莱坞之国王归来4k.Don - 2 The King is Back 2011.MULTi.2160p.SDR.HEVC.DT.torrent (62.71 KB, 售价: 10 金币)
热门电影
关闭

站长通知上一条 /1 下一条

Copyright   ©2015-2016  4k群  Powered by©Discuz!  技术支持:4K群