谎言大师4K电影下载

[复制链接]
朱古力小酥酥 发表于 2020-9-11 22:13 | 显示全部楼层 |阅读模式
电影频道
电影封面:
片  名: 谎言大师4
国  家: 美国   
电影分类: 剧情   
分 辨 率: 4K(3840x2160)    
画质标准: 其他 
电影声道: 5.1声道   
资源大小: 8.9 GB
剧情简介: 海伦·米伦与伊恩·麦克莱恩即将出演新线的剧情片《The Good Liar》(优秀的骗子,暂译)。影片将由比尔·康顿执导,他最近的作品,就是在全世界狂揽12亿美元的《美女与野兽》。
  在影片中,伊恩爵士饰演一名职业骗子,当他遇到海伦·米伦饰演的富裕寡妇时,简直不敢相信自己的运气。这位寡妇把自己的生活和家门都向骗子打开,骗子却发现自己是真的关心她,让这笔本该骗了就撤的买卖,变成了像走钢丝一样的危险关系。
大说谎家(台) / 骗局谎情(港) / 好骗子/谎言大师4K.The.Good.Liar.2019.HEVC.HDR.2160p.WEBRiP.DTS-HD.MA.5.1-4k电影信息
  1. General
  2. Complete name                       : 谎言大师4K.The.Good.Liar.2019.HDR.2160p.WEBRiP.DTS-HD.MA.5.1.HEVC-.mkv
  3. Format                                   : Matroska
  4. Format version                           : Version 4
  5. File size                                : 8.92 GiB
  6. Duration                                 : 1 h 49 min
  7. Overall bit rate mode                    : Variable
  8. Overall bit rate                         : 11.6 Mb/s
  9. Encoded date                             : UTC 2020-07-26 19:05:11
  10. Writing application                      : mkvmerge v47.0.0 ('Black Flag') 64-bit
  11. Writing library                          : libebml v1.3.10 + libmatroska v1.5.2
  12. Video
  13. ID                                       : 1
  14. Format                                   : HEVC
  15. Format/Info                              : High Efficiency Video Coding
  16. Commercial name                          : HDR10
  17. Format profile                           : Main [email protected]@High
  18. Codec ID                                 : V_MPEGH/ISO/HEVC
  19. Duration                                 : 1 h 49 min
  20. Bit rate                                 : 9 494 kb/s
  21. Width                                    : 3 840 pixels
  22. Height                                   : 2 160 pixels
  23. Display aspect ratio                     : 16:9
  24. Frame rate mode                          : Constant
  25. Frame rate                               : 23.976 (24000/1001) FPS
  26. Color space                              : YUV
  27. Chroma subsampling                       : 4:2:0
  28. Bit depth                                : 10 bits
  29. Bits/(Pixel*Frame)                       : 0.048
  30. Stream size                              : 7.27 GiB (82%)
  31. Language                                 : English
  32. Default                                  : Yes
  33. Forced                                   : No
  34. Color range                              : Limited
  35. Color primaries                          : BT.2020
  36. Transfer characteristics                 : PQ
  37. Matrix coefficients                      : BT.2020 non-constant
  38. Mastering display color primaries        : Display P3
  39. Mastering display luminance              : min: 0.0001 cd/m2, max: 1000 cd/m2
  40. Maximum Content Light Level              : 244 cd/m2
  41. Maximum Frame-Average Light Level        : 42 cd/m2
  42. Audio
  43. ID                                       : 2
  44. Format                                   : DTS XLL
  45. Format/Info                              : Digital Theater Systems
  46. Commercial name                          : DTS-HD Master Audio
  47. Codec ID                                 : A_DTS
  48. Duration                                 : 1 h 49 min
  49. Bit rate mode                            : Variable
  50. Bit rate                                 : 2 141 kb/s
  51. Channel(s)                               : 6 channels
  52. Channel layout                           : C L R Ls Rs LFE
  53. Sampling rate                            : 48.0 kHz
  54. Frame rate                               : 93.750 FPS (512 SPF)
  55. Bit depth                                : 16 bits
  56. Compression mode                         : Lossless
  57. Delay relative to video                  : 6 ms
  58. Stream size                              : 1.64 GiB (18%)
  59. Title                                    : English DTS-HD Master Audio 5.1 @ 2141 kbps
  60. Language                                 : English
  61. Default                                  : Yes
  62. Forced                                   : No
  63. Text
  64. ID                                       : 3
  65. Format                                   : PGS
  66. Muxing mode                              : zlib
  67. Codec ID                                 : S_HDMV/PGS
  68. Codec ID/Info                            : Picture based subtitle format used on BDs/HD-DVDs
  69. Duration                                 : 1 h 43 min
  70. Bit rate                                 : 36.5 kb/s
  71. Count of elements                        : 3088
  72. Stream size                              : 27.1 MiB (0%)
  73. Title                                    : Eng/SUP
  74. Language                                 : English
  75. Default                                  : Yes
  76. Forced                                   : No
复制代码

大说谎家(台) / 骗局谎情(港) / 好骗子/谎言大师4K.The.Good.Liar.2019.HEVC.HDR.2160p.WEBRiP.DTS-HD.MA.5.1-4K电影下载
谎言大师4K.The.Good.Liar.2019.HEVC.HDR.2160p.WEBRiP.DTS-HD.MA.5.1【8.9 GB】
谎言大师4K.The.Good.Liar.2019.HEVC.HDR.2160p.WEBRiP.DTS-HD.MA.5.1.torrent (12.46 KB, 售价: 10 金币)
热门电影
关闭

站长通知上一条 /1 下一条

Copyright   ©2015-2016  4k群  Powered by©Discuz!  技术支持:4K群