太空生活4K.High.Life.2018.HDR.2160p电影下载

[复制链接]
朱古力小酥酥 发表于 2020-9-13 16:43 | 显示全部楼层 |阅读模式
电影频道
电影封面:
片  名: 太空生活4K
国  家: 美国   
电影分类: 科幻   
分 辨 率: 4K(3840x2160)    
画质标准: HDR    
电影声道: 5.1声道   
资源大小: 11.65 GB
剧情简介: 在一艘飞往黑洞的宇宙飞船上,一群被判死刑的罪犯被赋予太空英雄般的使命,去为地球寻找替代能源。囚犯之间的性活动被严格禁止,只能通过飞船上的"盒子"装置来缓解生理冲动。其中,Dibs博士(朱丽叶·比诺什 饰)将每个囚犯当作实验动物对待,并疯狂致力于通过人工jing来制造婴儿,然而这些实验却一直没有成功,直到她偷偷取得奉行禁yu生活的Monte(罗伯特·帕丁森 饰)的...jinye
太空生活/黑洞迷情(台) / 高大人生4K.High.Life.2018.HDR.2160p.WEB.h265.4k电影信息
  1. Video
  2. ID : 3
  3. Format : HEVC
  4. Format/Info : High Efficiency Video Coding
  5. Format profile : Main 10@L5@Main
  6. HDR format : SMPTE ST 2094 App 4, Version 0
  7. Codec ID : V_MPEGH/ISO/HEVC
  8. Duration : 1 h 53 min
  9. Bit rate : 14.0 Mb/s
  10. Width : 3 840 pixels
  11. Height : 2 080 pixels
  12. Display aspect ratio : 1.85:1
  13. Frame rate mode : Constant
  14. Frame rate : 23.976 (24000/1001) FPS
  15. Standard : NTSC
  16. Color space : YUV
  17. Chroma subsampling : 4:2:0 (Type 2)
  18. Bit depth : 10 bits
  19. Bits/(Pixel*Frame) : 0.073
  20. Stream size : 11.0 GiB (96%)
  21. Default : Yes
  22. Forced : No
  23. Color range : Limited
  24. Color primaries : BT.2020
  25. Transfer characteristics : PQ
  26. Matrix coefficients : BT.2020 non-constant
  27. Mastering display color primaries : Display P3
  28. Mastering display luminance : min: 0.0001 cd/m2, max: 1000 cd/m2
  29. Maximum Content Light Level : 1149 cd/m2
  30. Maximum Frame-Average Light Level : 266 cd/m2

  31. Audio
  32. ID : 1
  33. Format : E-AC-3
  34. Format/Info : Enhanced AC-3
  35. Commercial name : Dolby Digital Plus
  36. Codec ID : A_EAC3
  37. Duration : 1 h 53 min
  38. Bit rate mode : Constant
  39. Bit rate : 640 kb/s
  40. Channel(s) : 6 channels
  41. Channel layout : L R C LFE Ls Rs
  42. Sampling rate : 48.0 kHz
  43. Frame rate : 31.250 FPS (1536 SPF)
  44. Compression mode : Lossy
  45. Stream size : 518 MiB (4%)
  46. Title : English
  47. Language : English
  48. Service kind : Complete Main
  49. Default : Yes
  50. Forced : No

  51. Text
  52. ID : 2
  53. Format : UTF-8
  54. Codec ID : S_TEXT/UTF8
  55. Codec ID/Info : UTF-8 Plain Text
  56. Duration : 1 h 48 min
  57. Bit rate : 23 b/s
  58. Count of elements : 859
  59. Stream size : 18.5 KiB (0%)
  60. Title : English [SDH]
  61. Language : English
  62. Default : No
  63. Forced : No
复制代码

太空生活/黑洞迷情(台) / 高大人生4K.High.Life.2018.HDR.2160p.WEB.h265.4K电影下载
太空生活4K.High.Life.2018.HDR.2160p.WEB.h265【11.65GB】
太空生活4k.High.Life.2018.HDR.2160p.WEB.h265-WATCHER.torrent (58.91 KB)
热门电影
关闭

站长通知上一条 /1 下一条

Copyright   ©2015-2016  4k群  Powered by©Discuz!  技术支持:4K群