放射性物质4K.Radioactive.2019.HDR.2160p电影下载

[复制链接]
朱古力小酥酥 发表于 2020-9-13 16:50 | 显示全部楼层 |阅读模式
电影频道
电影封面:
片  名: 放射性物质4K
国  家: 英国   其他   
电影分类: 剧情   传记   
分 辨 率: 4K(3840x2160)    
画质标准: HDR    
电影声道: 5.1声道   
资源大小: 11.80 GB
剧情简介: 基于Lauren Redniss所著小说《Marie & Pierre Curie: A Tale of Love and Fallout》,聚焦玛丽·居里和皮埃尔·居里夫妻对科学的探索和两人之间的关系
放射性物质/居礼夫人:一代科研传奇(港) / 居礼夫人:放射永恒(台) / 放射性 / 以光之名4K.Radioactive.2019.HDR.2160p.WEB.h265.4k电影信息
  1. Video
  2. ID : 3
  3. Format : HEVC
  4. Format/Info : High Efficiency Video Coding
  5. Format profile : Main 10@L5@Main
  6. HDR format : SMPTE ST 2094 App 4, Version 0
  7. Codec ID : V_MPEGH/ISO/HEVC
  8. Duration : 1 h 49 min
  9. Bit rate : 14.6 Mb/s
  10. Width : 3 840 pixels
  11. Height : 1 600 pixels
  12. Display aspect ratio : 2.40:1
  13. Frame rate mode : Constant
  14. Frame rate : 23.976 (24000/1001) FPS
  15. Standard : NTSC
  16. Color space : YUV
  17. Chroma subsampling : 4:2:0 (Type 2)
  18. Bit depth : 10 bits
  19. Bits/(Pixel*Frame) : 0.099
  20. Stream size : 11.2 GiB (96%)
  21. Default : Yes
  22. Forced : No
  23. Color range : Limited
  24. Color primaries : BT.2020
  25. Transfer characteristics : PQ
  26. Matrix coefficients : BT.2020 non-constant
  27. Mastering display color primaries : Display P3
  28. Mastering display luminance : min: 0.0001 cd/m2, max: 1000 cd/m2
  29. Maximum Content Light Level : 966 cd/m2
  30. Maximum Frame-Average Light Level : 383 cd/m2

  31. Audio
  32. ID : 1
  33. Format : E-AC-3
  34. Format/Info : Enhanced AC-3
  35. Commercial name : Dolby Digital Plus
  36. Codec ID : A_EAC3
  37. Duration : 1 h 49 min
  38. Bit rate mode : Constant
  39. Bit rate : 640 kb/s
  40. Channel(s) : 6 channels
  41. Channel layout : L R C LFE Ls Rs
  42. Sampling rate : 48.0 kHz
  43. Frame rate : 31.250 FPS (1536 SPF)
  44. Compression mode : Lossy
  45. Stream size : 502 MiB (4%)
  46. Title : English
  47. Language : English
  48. Service kind : Complete Main
  49. Default : Yes
  50. Forced : No

  51. Text
  52. ID : 2
  53. Format : UTF-8
  54. Codec ID : S_TEXT/UTF8
  55. Codec ID/Info : UTF-8 Plain Text
  56. Duration : 1 h 40 min
  57. Bit rate : 57 b/s
  58. Count of elements : 1245
  59. Stream size : 42.2 KiB (0%)
  60. Title : English [SDH]
  61. Language : English
  62. Default : No
  63. Forced : No
复制代码

放射性物质/居礼夫人:一代科研传奇(港) / 居礼夫人:放射永恒(台) / 放射性 / 以光之名4K.Radioactive.2019.HDR.2160p.WEB.h265.4K电影下载
放射性物质4K.Radioactive.2019.HDR.2160p.WEB.h265【11.80 GB】
放射性物质4K.Radioactive.2019.HDR.2160p.WEB.h265-WATCHER.torrent (59.7 KB)
热门电影
关闭

站长通知上一条 /1 下一条

Copyright   ©2015-2016  4k群  Powered by©Discuz!  技术支持:4K群