狩猎4k The.Hunt.2020.iNTERNAL.2160p电影下载

[复制链接]
朱古力小酥酥 发表于 2020-9-16 22:03 | 显示全部楼层 |阅读模式
电影频道
电影封面:
片  名: 狩猎4k
国  家: 美国   
电影分类: 动作   惊悚   
分 辨 率: 4K(3840x2160)    
画质标准: 其他 
电影声道: 其他
资源大小: 10.17 GB
剧情简介: 12个陌生人在空地上醒来。他们不知道自己在哪里,或者是如何到达这里的。他们不知道他们已经被选中,为了一个非常特殊的目的——捕猎。
猎逃生死战(港) / 猎捕 / 追捕/狩猎4k The.Hunt.2020.iNTERNAL.2160p.WEB.x265电影信息
  1. Video
  2. ID : 1
  3. Format : HEVC
  4. Format/Info : High Efficiency Video Coding
  5. Format profile : Main@L5.1@Main
  6. Codec ID : V_MPEGH/ISO/HEVC
  7. Duration : 1 h 30 min
  8. Bit rate : 15.7 Mb/s
  9. Width : 3 840 pixels
  10. Height : 2 160 pixels
  11. Display aspect ratio : 16:9
  12. Frame rate mode : Constant
  13. Frame rate : 23.976 (24000/1001) FPS
  14. Original frame rate : 23.976 (23976/1000) FPS
  15. Color space : YUV
  16. Chroma subsampling : 4:2:0
  17. Bit depth : 8 bits
  18. Bits/(Pixel*Frame) : 0.079
  19. Stream size : 9.89 GiB (98%)
  20. Writing library : x265 3.0_RC+11-72188bd2f034:[Linux][GCC 4.9.2][64 bit] 8bit+10bit+12bit
  21. Encoding settings : cpuid=1111039 / frame-threads=3 / wpp / no-pmode / no-pme / no-psnr / no-ssim / log-level=2 / input-csp=1 / input-res=3840x2160 / interlace=0 / total-frames=0 / level-idc=51 / high-tier=1 / uhd-bd=0 / ref=4 / no-allow-non-conformance / no-repeat-headers / annexb / no-aud / no-hrd / info / hash=0 / no-temporal-layers / no-open-gop / min-keyint=24 / keyint=48 / gop-lookahead=0 / bframes=3 / b-adapt=0 / no-b-pyramid / bframe-bias=0 / rc-lookahead=15 / lookahead-slices=8 / scenecut=0 / radl=0 / no-splice / no-intra-refresh / ctu=64 / min-cu-size=8 / no-rect / no-amp / max-tu-size=32 / tu-inter-depth=1 / tu-intra-depth=1 / limit-tu=0 / rdoq-level=0 / dynamic-rd=0.00 / no-ssim-rd / signhide / no-tskip / nr-intra=0 / nr-inter=0 / no-constrained-intra / strong-intra-smoothing / max-merge=2 / limit-refs=3 / no-limit-modes / me=1 / subme=2 / merange=57 / temporal-mvp / weightp / no-weightb / no-analyze-src-pics / deblock=0:0 / sao / no-sao-non-deblock / rd=2 / no-early-skip / rskip / fast-intra / no-tskip-fast / no-cu-lossless / no-b-intra / no-splitrd-skip / rdpenalty=0 / psy-rd=2.00 / psy-rdoq=0.00 / no-rd-refine / no-lossless / cbqpoffs=0 / crqpoffs=0 / rc=cbr / bitrate=16000 / qcomp=0.60 / qpstep=4 / stats-write=0 / stats-read=0 / vbv-maxrate=16000 / vbv-bufsize=32000 / vbv-init=0.9 / ipratio=1.40 / pbratio=1.30 / aq-mode=2 / aq-strength=1.00 / cutree / zone-count=0 / no-strict-cbr / qg-size=32 / no-rc-grain / qpmax=69 / qpmin=0 / no-const-vbv / sar=1 / overscan=0 / videoformat=5 / range=0 / colorprim=2 / transfer=2 / colormatrix=2 / chromaloc=0 / display-window=0 / max-cll=0,0 / min-luma=0 / max-luma=255 / log2-max-poc-lsb=8 / vui-timing-info / vui-hrd-info / slices=1 / no-opt-qp-pps / no-opt-ref-list-length-pps / no-multi-pass-opt-rps / scenecut-bias=0.05 / no-opt-cu-delta-qp / no-aq-motion / no-hdr / no-hdr-opt / no-dhdr10-opt / no-idr-recovery-sei / analysis-reuse-level=5 / scale-factor=0 / refine-intra=0 / refine-inter=0 / refine-mv=0 / refine-ctu-distortion=0 / no-limit-sao / ctu-info=0 / no-lowpass-dct / refine-analysis-type=0 / copy-pic=1 / max-ausize-factor=1.0 / no-dynamic-refine / no-single-sei / no-hevc-aq / qp-adaptation-range=1.00
  22. Default : Yes
  23. Forced : No

  24. Audio
  25. ID : 2
  26. Format : E-AC-3
  27. Format/Info : Enhanced AC-3
  28. Commercial name : Dolby Digital Plus
  29. Codec ID : A_EAC3
  30. Duration : 1 h 30 min
  31. Bit rate mode : Constant
  32. Bit rate : 256 kb/s
  33. Channel(s) : 6 channels
  34. Channel layout : L R C LFE Ls Rs
  35. Sampling rate : 48.0 kHz
  36. Frame rate : 31.250 FPS (1536 SPF)
  37. Compression mode : Lossy
  38. Stream size : 165 MiB (2%)
  39. Language : English
  40. Service kind : Complete Main
  41. Default : Yes
  42. Forced : Yes

  43. Text #1
  44. ID : 3
  45. Format : UTF-8
  46. Codec ID : S_TEXT/UTF8
  47. Codec ID/Info : UTF-8 Plain Text
  48. Duration : 1 h 22 min
  49. Bit rate : 52 b/s
  50. Count of elements : 1088
  51. Stream size : 32.0 KiB (0%)
  52. Language : English
  53. Default : No
  54. Forced : No

  55. Text #2
  56. ID : 4
  57. Format : UTF-8
  58. Codec ID : S_TEXT/UTF8
  59. Codec ID/Info : UTF-8 Plain Text
  60. Duration : 1 h 28 min
  61. Bit rate : 44 b/s
  62. Count of elements : 1072
  63. Stream size : 28.9 KiB (0%)
  64. Language : Italian
  65. Default : No
  66. Forced : No
复制代码

猎逃生死战(港) / 猎捕 / 追捕/狩猎4k The.Hunt.2020.iNTERNAL.2160p.WEB.x265电影下载
狩猎4k The.Hunt.2020.iNTERNAL.2160p.WEB.x265【10.17 GB】
狩猎4k The.Hunt.2020.iNTERNAL.2160p.WEB.x265-NTROPiC.torrent (51.56 KB, 售价: 10 金币)
热门电影
关闭

站长通知上一条 /1 下一条

Copyright   ©2015-2016  4k群  Powered by©Discuz!  技术支持:4K群