惊天营救4K.Extraction.2020.2160p电影下载

[复制链接]
朱古力小酥酥 发表于 2020-9-16 22:15 | 显示全部楼层 |阅读模式
电影频道
电影封面:
片  名: 惊天营救4K
国  家: 美国   
电影分类: 动作   
分 辨 率: 4K(3840x2160)    
画质标准: HDR    
电影声道: 5.1声道   
资源大小: 13 GB
剧情简介: 泰勒·雷克(克里斯·海姆斯沃斯饰)是一名无所畏惧的黑市雇佣兵,一无所有的他奉命营救入狱的黑帮大佬被绑架的儿子。但是在充斥着武器交易商和毒贩的阴暗地下世界中,本就致命的任务更是难以完成,并彻底地改变了雷克和男孩的命运。
极限营救 / 达卡 / Dhaka / Out of the Fire/惊天营救4K.Extraction.2020.2160p.NF.WEBRip.x265.10bit.HDR.DDP5.1.Atmos电影信息
  1. Video
  2. ID : 1
  3. Format : HEVC
  4. Format/Info : High Efficiency Video Coding
  5. Format profile : Main 10@L5.1@High
  6. HDR format : SMPTE ST 2086, HDR10 compatible
  7. Codec ID : V_MPEGH/ISO/HEVC
  8. Duration : 1 h 56 min
  9. Bit rate : 15.5 Mb/s
  10. Width : 3 840 pixels
  11. Height : 1 604 pixels
  12. Display aspect ratio : 2.40:1
  13. Frame rate mode : Constant
  14. Frame rate : 24.000 FPS
  15. Color space : YUV
  16. Chroma subsampling : 4:2:0 (Type 2)
  17. Bit depth : 10 bits
  18. Bits/(Pixel*Frame) : 0.105
  19. Stream size : 12.6 GiB (95%)
  20. Writing library : x265 3.3+10-g08d895bb6:[Windows][GCC 10.0.1][64 bit] 10bit
  21. Encoding settings : cpuid=1111039 / frame-threads=4 / numa-pools=24 / wpp / no-pmode / no-pme / no-psnr / no-ssim / log-level=2 / input-csp=1 / input-res=3840x1604 / interlace=0 / total-frames=167041 / level-idc=51 / high-tier=1 / uhd-bd=0 / ref=5 / no-allow-non-conformance / repeat-headers / annexb / aud / hrd / info / hash=0 / no-temporal-layers / open-gop / min-keyint=24 / keyint=250 / gop-lookahead=0 / bframes=8 / b-adapt=2 / b-pyramid / bframe-bias=0 / rc-lookahead=40 / lookahead-slices=8 / scenecut=40 / hist-scenecut=0 / radl=0 / no-splice / no-intra-refresh / ctu=64 / min-cu-size=8 / no-rect / no-amp / max-tu-size=32 / tu-inter-depth=4 / tu-intra-depth=4 / limit-tu=4 / rdoq-level=0 / dynamic-rd=0.00 / no-ssim-rd / signhide / no-tskip / nr-intra=0 / nr-inter=0 / no-constrained-intra / strong-intra-smoothing / max-merge=4 / limit-refs=1 / no-limit-modes / me=1 / subme=5 / merange=57 / temporal-mvp / no-frame-dup / no-hme / weightp / weightb / no-analyze-src-pics / deblock=-3:-3 / no-sao / no-sao-non-deblock / rd=4 / selective-sao=0 / early-skip / rskip / no-fast-intra / no-tskip-fast / no-cu-lossless / b-intra / no-splitrd-skip / rdpenalty=0 / psy-rd=2.00 / psy-rdoq=0.00 / no-rd-refine / no-lossless / cbqpoffs=0 / crqpoffs=0 / rc=crf / crf=18.0 / qcomp=0.60 / qpstep=4 / stats-write=0 / stats-read=0 / vbv-maxrate=160000 / vbv-bufsize=160000 / vbv-init=0.9 / crf-max=0.0 / crf-min=0.0 / ipratio=1.30 / pbratio=1.15 / aq-mode=1 / aq-strength=0.80 / no-cutree / zone-count=0 / no-strict-cbr / qg-size=32 / no-rc-grain / qpmax=69 / qpmin=0 / no-const-vbv / sar=1 / overscan=0 / videoformat=5 / range=0 / colorprim=9 / transfer=16 / colormatrix=9 / chromaloc=1 / chromaloc-top=2 / chromaloc-bottom=2 / display-window=0 / master-display=G(13250,34500)B(7500,3000)R(34000,16000)WP(15635,16450)L(10000000,1) / cll=2873,482 / min-luma=0 / max-luma=1023 / log2-max-poc-lsb=8 / vui-timing-info / vui-hrd-info / slices=1 / no-opt-qp-pps / no-opt-ref-list-length-pps / no-multi-pass-opt-rps / scenecut-bias=0.05 / hist-threshold=0.01 / no-opt-cu-delta-qp / no-aq-motion / hdr10 / hdr10-opt / no-dhdr10-opt / no-idr-recovery-sei / analysis-reuse-level=0 / analysis-save-reuse-level=0 / analysis-load-reuse-level=0 / scale-factor=0 / refine-intra=0 / refine-inter=0 / refine-mv=1 / refine-ctu-distortion=0 / no-limit-sao / ctu-info=0 / no-lowpass-dct / refine-analysis-type=0 / copy-pic=1 / max-ausize-factor=1.0 / no-dynamic-refine / no-single-sei / no-hevc-aq / no-svt / no-field / qp-adaptation-range=1.00 / no-scenecut-aware-qpconformance-window-offsets / right=0 / bottom=0 / decoder-max-rate=0
  22. Default : Yes
  23. Forced : No
  24. Color range : Limited
  25. Color primaries : BT.2020
  26. Transfer characteristics : PQ
  27. Matrix coefficients : BT.2020 non-constant
  28. Mastering display color primaries : Display P3
  29. Mastering display luminance : min: 0.0001 cd/m2, max: 1000 cd/m2
  30. Maximum Content Light Level : 2873 cd/m2
  31. Maximum Frame-Average Light Level : 482 cd/m2

  32. Audio
  33. ID : 2
  34. Format : E-AC-3 JOC
  35. Format/Info : Enhanced AC-3 with Joint Object Coding
  36. Commercial name : Dolby Digital Plus with Dolby Atmos
  37. Codec ID : A_EAC3
  38. Duration : 1 h 57 min
  39. Bit rate mode : Constant
  40. Bit rate : 768 kb/s
  41. Channel(s) : 6 channels
  42. Channel layout : L R C LFE Ls Rs
  43. Sampling rate : 48.0 kHz
  44. Frame rate : 31.250 FPS (1536 SPF)
  45. Compression mode : Lossy
  46. Stream size : 645 MiB (5%)
  47. Title : English
  48. Language : English
  49. Service kind : Complete Main
  50. Default : Yes
  51. Forced : No
  52. Complexity index : 16
  53. Number of dynamic objects : 15
  54. Bed channel count : 1 channel
  55. Bed channel configuration : LFE

  56. Text #1
  57. ID : 3
  58. Format : UTF-8
  59. Codec ID : S_TEXT/UTF8
  60. Codec ID/Info : UTF-8 Plain Text
  61. Duration : 1 h 22 min
  62. Bit rate : 6 b/s
  63. Count of elements : 167
  64. Stream size : 3.83 KiB (0%)
  65. Title : Forced
  66. Language : English
  67. Default : Yes
  68. Forced : Yes

  69. Text #2
  70. ID : 4
  71. Format : UTF-8
  72. Codec ID : S_TEXT/UTF8
  73. Codec ID/Info : UTF-8 Plain Text
  74. Duration : 1 h 34 min
  75. Bit rate : 27 b/s
  76. Count of elements : 717
  77. Stream size : 19.1 KiB (0%)
  78. Language : English
  79. Default : No
  80. Forced : No

  81. Text #3
  82. ID : 5
  83. Format : UTF-8
  84. Codec ID : S_TEXT/UTF8
  85. Codec ID/Info : UTF-8 Plain Text
  86. Duration : 1 h 39 min
  87. Bit rate : 34 b/s
  88. Count of elements : 925
  89. Stream size : 24.9 KiB (0%)
  90. Title : SDH
  91. Language : English
  92. Default : No
  93. Forced : No

  94. Text #4
  95. ID : 6
  96. Format : UTF-8
  97. Codec ID : S_TEXT/UTF8
  98. Codec ID/Info : UTF-8 Plain Text
  99. Duration : 1 h 55 min
  100. Bit rate : 34 b/s
  101. Count of elements : 685
  102. Stream size : 29.6 KiB (0%)
  103. Language : Arabic
  104. Default : No
  105. Forced : No

  106. Text #5
  107. ID : 7
  108. Format : UTF-8
  109. Codec ID : S_TEXT/UTF8
  110. Codec ID/Info : UTF-8 Plain Text
  111. Duration : 1 h 55 min
  112. Bit rate : 19 b/s
  113. Count of elements : 691
  114. Stream size : 16.3 KiB (0%)
  115. Language : Czech
  116. Default : No
  117. Forced : No

  118. Text #6
  119. ID : 8
  120. Format : UTF-8
  121. Codec ID : S_TEXT/UTF8
  122. Codec ID/Info : UTF-8 Plain Text
  123. Duration : 1 h 55 min
  124. Bit rate : 19 b/s
  125. Count of elements : 673
  126. Stream size : 16.4 KiB (0%)
  127. Language : Danish
  128. Default : No
  129. Forced : No

  130. Text #7
  131. ID : 9
  132. Format : UTF-8
  133. Codec ID : S_TEXT/UTF8
  134. Codec ID/Info : UTF-8 Plain Text
  135. Duration : 1 h 55 min
  136. Bit rate : 20 b/s
  137. Count of elements : 680
  138. Stream size : 17.6 KiB (0%)
  139. Language : German
  140. Default : No
  141. Forced : No

  142. Text #8
  143. ID : 10
  144. Format : UTF-8
  145. Codec ID : S_TEXT/UTF8
  146. Codec ID/Info : UTF-8 Plain Text
  147. Duration : 1 h 55 min
  148. Bit rate : 32 b/s
  149. Count of elements : 699
  150. Stream size : 27.6 KiB (0%)
  151. Language : Greek
  152. Default : No
  153. Forced : No

  154. Text #9
  155. ID : 11
  156. Format : UTF-8
  157. Codec ID : S_TEXT/UTF8
  158. Codec ID/Info : UTF-8 Plain Text
  159. Duration : 1 h 55 min
  160. Bit rate : 19 b/s
  161. Count of elements : 697
  162. Stream size : 16.5 KiB (0%)
  163. Language : Spanish
  164. Default : No
  165. Forced : No

  166. Text #10
  167. ID : 12
  168. Format : UTF-8
  169. Codec ID : S_TEXT/UTF8
  170. Codec ID/Info : UTF-8 Plain Text
  171. Duration : 1 h 55 min
  172. Bit rate : 20 b/s
  173. Count of elements : 722
  174. Stream size : 17.1 KiB (0%)
  175. Title : European
  176. Language : Spanish
  177. Default : No
  178. Forced : No

  179. Text #11
  180. ID : 13
  181. Format : UTF-8
  182. Codec ID : S_TEXT/UTF8
  183. Codec ID/Info : UTF-8 Plain Text
  184. Duration : 1 h 55 min
  185. Bit rate : 19 b/s
  186. Count of elements : 674
  187. Stream size : 16.1 KiB (0%)
  188. Language : Finnish
  189. Default : No
  190. Forced : No

  191. Text #12
  192. ID : 14
  193. Format : UTF-8
  194. Codec ID : S_TEXT/UTF8
  195. Codec ID/Info : UTF-8 Plain Text
  196. Duration : 1 h 55 min
  197. Bit rate : 20 b/s
  198. Count of elements : 689
  199. Stream size : 17.1 KiB (0%)
  200. Language : French
  201. Default : No
  202. Forced : No

  203. Text #13
  204. ID : 15
  205. Format : UTF-8
  206. Codec ID : S_TEXT/UTF8
  207. Codec ID/Info : UTF-8 Plain Text
  208. Duration : 1 h 55 min
  209. Bit rate : 33 b/s
  210. Count of elements : 677
  211. Stream size : 28.1 KiB (0%)
  212. Language : Hebrew
  213. Default : No
  214. Forced : No

  215. Text #14
  216. ID : 16
  217. Format : UTF-8
  218. Codec ID : S_TEXT/UTF8
  219. Codec ID/Info : UTF-8 Plain Text
  220. Duration : 1 h 55 min
  221. Bit rate : 19 b/s
  222. Count of elements : 674
  223. Stream size : 16.2 KiB (0%)
  224. Language : Hungarian
  225. Default : No
  226. Forced : No

  227. Text #15
  228. ID : 17
  229. Format : UTF-8
  230. Codec ID : S_TEXT/UTF8
  231. Codec ID/Info : UTF-8 Plain Text
  232. Duration : 1 h 55 min
  233. Bit rate : 20 b/s
  234. Count of elements : 668
  235. Stream size : 17.1 KiB (0%)
  236. Language : Indonesian
  237. Default : No
  238. Forced : No

  239. Text #16
  240. ID : 18
  241. Format : UTF-8
  242. Codec ID : S_TEXT/UTF8
  243. Codec ID/Info : UTF-8 Plain Text
  244. Duration : 1 h 55 min
  245. Bit rate : 19 b/s
  246. Count of elements : 664
  247. Stream size : 16.8 KiB (0%)
  248. Language : Italian
  249. Default : No
  250. Forced : No

  251. Text #17
  252. ID : 19
  253. Format : UTF-8
  254. Codec ID : S_TEXT/UTF8
  255. Codec ID/Info : UTF-8 Plain Text
  256. Duration : 1 h 55 min
  257. Bit rate : 20 b/s
  258. Count of elements : 689
  259. Stream size : 17.0 KiB (0%)
  260. Language : Japanese
  261. Default : No
  262. Forced : No

  263. Text #18
  264. ID : 20
  265. Format : UTF-8
  266. Codec ID : S_TEXT/UTF8
  267. Codec ID/Info : UTF-8 Plain Text
  268. Duration : 1 h 55 min
  269. Bit rate : 23 b/s
  270. Count of elements : 679
  271. Stream size : 20.0 KiB (0%)
  272. Language : Korean
  273. Default : No
  274. Forced : No

  275. Text #19
  276. ID : 21
  277. Format : UTF-8
  278. Codec ID : S_TEXT/UTF8
  279. Codec ID/Info : UTF-8 Plain Text
  280. Duration : 1 h 55 min
  281. Bit rate : 18 b/s
  282. Count of elements : 655
  283. Stream size : 16.0 KiB (0%)
  284. Language : Norwegian Bokmal
  285. Default : No
  286. Forced : No

  287. Text #20
  288. ID : 22
  289. Format : UTF-8
  290. Codec ID : S_TEXT/UTF8
  291. Codec ID/Info : UTF-8 Plain Text
  292. Duration : 1 h 55 min
  293. Bit rate : 19 b/s
  294. Count of elements : 667
  295. Stream size : 16.1 KiB (0%)
  296. Language : Dutch
  297. Default : No
  298. Forced : No

  299. Text #21
  300. ID : 23
  301. Format : UTF-8
  302. Codec ID : S_TEXT/UTF8
  303. Codec ID/Info : UTF-8 Plain Text
  304. Duration : 1 h 55 min
  305. Bit rate : 17 b/s
  306. Count of elements : 668
  307. Stream size : 14.4 KiB (0%)
  308. Language : Polish
  309. Default : No
  310. Forced : No

  311. Text #22
  312. ID : 24
  313. Format : UTF-8
  314. Codec ID : S_TEXT/UTF8
  315. Codec ID/Info : UTF-8 Plain Text
  316. Duration : 1 h 55 min
  317. Bit rate : 20 b/s
  318. Count of elements : 691
  319. Stream size : 16.9 KiB (0%)
  320. Language : Portuguese
  321. Default : No
  322. Forced : No

  323. Text #23
  324. ID : 25
  325. Format : UTF-8
  326. Codec ID : S_TEXT/UTF8
  327. Codec ID/Info : UTF-8 Plain Text
  328. Duration : 1 h 55 min
  329. Bit rate : 19 b/s
  330. Count of elements : 672
  331. Stream size : 16.3 KiB (0%)
  332. Title : Brazilian
  333. Language : Portuguese
  334. Default : No
  335. Forced : No

  336. Text #24
  337. ID : 26
  338. Format : UTF-8
  339. Codec ID : S_TEXT/UTF8
  340. Codec ID/Info : UTF-8 Plain Text
  341. Duration : 1 h 55 min
  342. Bit rate : 23 b/s
  343. Count of elements : 687
  344. Stream size : 19.5 KiB (0%)
  345. Language : Romanian
  346. Default : No
  347. Forced : No

  348. Text #25
  349. ID : 27
  350. Format : UTF-8
  351. Codec ID : S_TEXT/UTF8
  352. Codec ID/Info : UTF-8 Plain Text
  353. Duration : 1 h 55 min
  354. Bit rate : 30 b/s
  355. Count of elements : 675
  356. Stream size : 26.2 KiB (0%)
  357. Language : Russian
  358. Default : No
  359. Forced : No

  360. Text #26
  361. ID : 28
  362. Format : UTF-8
  363. Codec ID : S_TEXT/UTF8
  364. Codec ID/Info : UTF-8 Plain Text
  365. Duration : 1 h 55 min
  366. Bit rate : 19 b/s
  367. Count of elements : 620
  368. Stream size : 16.9 KiB (0%)
  369. Language : Swedish
  370. Default : No
  371. Forced : No

  372. Text #27
  373. ID : 29
  374. Format : UTF-8
  375. Codec ID : S_TEXT/UTF8
  376. Codec ID/Info : UTF-8 Plain Text
  377. Duration : 1 h 55 min
  378. Bit rate : 51 b/s
  379. Count of elements : 681
  380. Stream size : 43.2 KiB (0%)
  381. Language : Thai
  382. Default : No
  383. Forced : No

  384. Text #28
  385. ID : 30
  386. Format : UTF-8
  387. Codec ID : S_TEXT/UTF8
  388. Codec ID/Info : UTF-8 Plain Text
  389. Duration : 1 h 55 min
  390. Bit rate : 19 b/s
  391. Count of elements : 661
  392. Stream size : 16.7 KiB (0%)
  393. Language : Turkish
  394. Default : No
  395. Forced : No

  396. Text #29
  397. ID : 31
  398. Format : UTF-8
  399. Codec ID : S_TEXT/UTF8
  400. Codec ID/Info : UTF-8 Plain Text
  401. Duration : 1 h 55 min
  402. Bit rate : 28 b/s
  403. Count of elements : 674
  404. Stream size : 24.3 KiB (0%)
  405. Language : Vietnamese
  406. Default : No
  407. Forced : No

  408. Text #30
  409. ID : 32
  410. Format : UTF-8
  411. Codec ID : S_TEXT/UTF8
  412. Codec ID/Info : UTF-8 Plain Text
  413. Duration : 1 h 55 min
  414. Bit rate : 22 b/s
  415. Count of elements : 681
  416. Stream size : 19.2 KiB (0%)
  417. Title : Simplified
  418. Language : Chinese
  419. Default : No
  420. Forced : No

  421. Text #31
  422. ID : 33
  423. Format : UTF-8
  424. Codec ID : S_TEXT/UTF8
  425. Codec ID/Info : UTF-8 Plain Text
  426. Duration : 1 h 55 min
  427. Bit rate : 21 b/s
  428. Count of elements : 744
  429. Stream size : 18.5 KiB (0%)
  430. Title : Traditional
  431. Language : Chinese
  432. Default : No
  433. Forced : No
复制代码

极限营救 / 达卡 / Dhaka / Out of the Fire/惊天营救4K.Extraction.2020.2160p.NF.WEBRip.x265.10bit.HDR.DDP5.1.Atmos电影下载
惊天营救4K.Extraction.2020.2160p.NF.WEBRip.x265.10bit.HDR.DDP5.1.Atmos【13 GB】
惊天营救4k.Extraction.2020.2160p.NF.WEBRip.x265.10bit.HDR.DDP5.1.Atmos-AJ.torrent (66.62 KB, 售价: 10 金币)
热门电影
关闭

站长通知上一条 /1 下一条

Copyright   ©2015-2016  4k群  Powered by©Discuz!  技术支持:4K群