美国最后一宗罪案4k The.Last.Days.of.American.Crime.2020.2160p电影下载

[复制链接]
朱古力小酥酥 发表于 2020-9-16 22:19 | 显示全部楼层 |阅读模式
电影频道
电影封面:
片  名: 美国最后一宗罪案4k
国  家: 美国   
电影分类: 动作   犯罪   冒险   惊悚   
分 辨 率: 4K(3840x2160)    
画质标准: 其他 
电影声道: 5.1声道   
资源大小: 19.25 GB
剧情简介: 改编自同名漫画,故事设定在不远的未来,世界一片混乱。为了解决问题,政府计划秘密播送一种广播信号,让所有人都无法犯罪。时间有限,三人团伙(埃德加·拉米雷兹、安娜·布鲁斯特、迈克尔·皮特出演)决定大干一场,在政府开始广播之前完成打劫计划。而他们的行动也将成为美国历史上最后一个犯罪活动。
美国犯罪的末日 / 美国犯罪的最后日子/美国最后一宗罪案4k The.Last.Days.of.American.Crime.2020.2160p.NF.WEBRip.x265.10bit.SDR.DDP5.1.Atmos电影信息
  1. Video
  2. ID : 1
  3. Format : HEVC
  4. Format/Info : High Efficiency Video Coding
  5. Format profile : Main 10@L5.1@High
  6. Codec ID : V_MPEGH/ISO/HEVC
  7. Duration : 2 h 29 min
  8. Bit rate : 17.7 Mb/s
  9. Width : 3 840 pixels
  10. Height : 1 600 pixels
  11. Display aspect ratio : 2.40:1
  12. Frame rate mode : Constant
  13. Frame rate : 24.000 FPS
  14. Color space : YUV
  15. Chroma subsampling : 4:2:0
  16. Bit depth : 10 bits
  17. Bits/(Pixel*Frame) : 0.120
  18. Stream size : 18.4 GiB (96%)
  19. Writing library : x265 3.2+38-fdbd4e4a2aff:[Windows][GCC 9.2.1][64 bit] 10bit
  20. Encoding settings : cpuid=1111039 / frame-threads=3 / numa-pools=8 / wpp / no-pmode / no-pme / no-psnr / no-ssim / log-level=2 / input-csp=1 / input-res=3840x1600 / interlace=0 / total-frames=214618 / level-idc=51 / high-tier=1 / uhd-bd=0 / ref=5 / no-allow-non-conformance / repeat-headers / annexb / aud / hrd / info / hash=0 / no-temporal-layers / open-gop / min-keyint=24 / keyint=250 / gop-lookahead=0 / bframes=8 / b-adapt=2 / b-pyramid / bframe-bias=0 / rc-lookahead=40 / lookahead-slices=8 / scenecut=40 / hist-scenecut=0 / radl=0 / no-splice / no-intra-refresh / ctu=64 / min-cu-size=8 / no-rect / no-amp / max-tu-size=32 / tu-inter-depth=4 / tu-intra-depth=4 / limit-tu=4 / rdoq-level=0 / dynamic-rd=0.00 / no-ssim-rd / signhide / no-tskip / nr-intra=0 / nr-inter=0 / no-constrained-intra / strong-intra-smoothing / max-merge=4 / limit-refs=1 / no-limit-modes / me=1 / subme=5 / merange=57 / temporal-mvp / no-frame-dup / no-hme / weightp / weightb / no-analyze-src-pics / deblock=-3:-3 / no-sao / no-sao-non-deblock / rd=4 / selective-sao=0 / early-skip / rskip / no-fast-intra / no-tskip-fast / no-cu-lossless / b-intra / no-splitrd-skip / rdpenalty=0 / psy-rd=2.00 / psy-rdoq=0.00 / no-rd-refine / no-lossless / cbqpoffs=0 / crqpoffs=0 / rc=crf / crf=19.0 / qcomp=0.60 / qpstep=4 / stats-write=0 / stats-read=0 / vbv-maxrate=160000 / vbv-bufsize=160000 / vbv-init=0.9 / crf-max=0.0 / crf-min=0.0 / ipratio=1.30 / pbratio=1.20 / aq-mode=1 / aq-strength=0.85 / no-cutree / zone-count=0 / no-strict-cbr / qg-size=32 / no-rc-grain / qpmax=69 / qpmin=0 / no-const-vbv / sar=1 / overscan=0 / videoformat=5 / range=0 / colorprim=1 / transfer=1 / colormatrix=1 / chromaloc=0 / display-window=0 / cll=0,0 / min-luma=0 / max-luma=1023 / log2-max-poc-lsb=8 / vui-timing-info / vui-hrd-info / slices=1 / no-opt-qp-pps / no-opt-ref-list-length-pps / no-multi-pass-opt-rps / scenecut-bias=0.05 / hist-threshold=0.01 / no-opt-cu-delta-qp / no-aq-motion / no-hdr10 / no-hdr10-opt / no-dhdr10-opt / no-idr-recovery-sei / analysis-reuse-level=0 / analysis-save-reuse-level=0 / analysis-load-reuse-level=0 / scale-factor=0 / refine-intra=0 / refine-inter=0 / refine-mv=1 / refine-ctu-distortion=0 / no-limit-sao / ctu-info=0 / no-lowpass-dct / refine-analysis-type=0 / copy-pic=1 / max-ausize-factor=1.0 / no-dynamic-refine / no-single-sei / no-hevc-aq / no-svt / no-field / qp-adaptation-range=1.00 / no-scenecut-aware-qpconformance-window-offsets / right=0 / bottom=0
  21. Default : Yes
  22. Forced : No
  23. Color range : Limited
  24. Color primaries : BT.709
  25. Transfer characteristics : BT.709
  26. Matrix coefficients : BT.709

  27. Audio
  28. ID : 2
  29. Format : E-AC-3 JOC
  30. Format/Info : Enhanced AC-3 with Joint Object Coding
  31. Commercial name : Dolby Digital Plus with Dolby Atmos
  32. Codec ID : A_EAC3
  33. Duration : 2 h 29 min
  34. Bit rate mode : Constant
  35. Bit rate : 768 kb/s
  36. Channel(s) : 6 channels
  37. Channel layout : L R C LFE Ls Rs
  38. Sampling rate : 48.0 kHz
  39. Frame rate : 31.250 FPS (1536 SPF)
  40. Compression mode : Lossy
  41. Stream size : 819 MiB (4%)
  42. Title : English
  43. Language : English
  44. Service kind : Complete Main
  45. Default : Yes
  46. Forced : No
  47. Complexity index : 16
  48. Number of dynamic objects : 15
  49. Bed channel count : 1 channel
  50. Bed channel configuration : LFE

  51. Text #1
  52. ID : 3
  53. Format : UTF-8
  54. Codec ID : S_TEXT/UTF8
  55. Codec ID/Info : UTF-8 Plain Text
  56. Duration : 2 h 26 min
  57. Bit rate : 47 b/s
  58. Count of elements : 1616
  59. Stream size : 50.6 KiB (0%)
  60. Title : SDH
  61. Language : English
  62. Default : No
  63. Forced : No

  64. Text #2
  65. ID : 4
  66. Format : UTF-8
  67. Codec ID : S_TEXT/UTF8
  68. Codec ID/Info : UTF-8 Plain Text
  69. Duration : 2 h 27 min
  70. Bit rate : 63 b/s
  71. Count of elements : 1366
  72. Stream size : 68.5 KiB (0%)
  73. Language : Arabic
  74. Default : No
  75. Forced : No

  76. Text #3
  77. ID : 5
  78. Format : UTF-8
  79. Codec ID : S_TEXT/UTF8
  80. Codec ID/Info : UTF-8 Plain Text
  81. Duration : 2 h 27 min
  82. Bit rate : 36 b/s
  83. Count of elements : 1350
  84. Stream size : 39.0 KiB (0%)
  85. Language : Czech
  86. Default : No
  87. Forced : No

  88. Text #4
  89. ID : 6
  90. Format : UTF-8
  91. Codec ID : S_TEXT/UTF8
  92. Codec ID/Info : UTF-8 Plain Text
  93. Duration : 2 h 26 min
  94. Bit rate : 35 b/s
  95. Count of elements : 1280
  96. Stream size : 37.7 KiB (0%)
  97. Language : Danish
  98. Default : No
  99. Forced : No

  100. Text #5
  101. ID : 7
  102. Format : UTF-8
  103. Codec ID : S_TEXT/UTF8
  104. Codec ID/Info : UTF-8 Plain Text
  105. Duration : 2 h 27 min
  106. Bit rate : 37 b/s
  107. Count of elements : 1358
  108. Stream size : 40.7 KiB (0%)
  109. Language : German
  110. Default : No
  111. Forced : No

  112. Text #6
  113. ID : 8
  114. Format : UTF-8
  115. Codec ID : S_TEXT/UTF8
  116. Codec ID/Info : UTF-8 Plain Text
  117. Duration : 2 h 27 min
  118. Bit rate : 62 b/s
  119. Count of elements : 1279
  120. Stream size : 67.4 KiB (0%)
  121. Language : Greek
  122. Default : No
  123. Forced : No

  124. Text #7
  125. ID : 9
  126. Format : UTF-8
  127. Codec ID : S_TEXT/UTF8
  128. Codec ID/Info : UTF-8 Plain Text
  129. Duration : 2 h 27 min
  130. Bit rate : 34 b/s
  131. Count of elements : 1340
  132. Stream size : 37.6 KiB (0%)
  133. Language : Spanish
  134. Default : No
  135. Forced : No

  136. Text #8
  137. ID : 10
  138. Format : UTF-8
  139. Codec ID : S_TEXT/UTF8
  140. Codec ID/Info : UTF-8 Plain Text
  141. Duration : 2 h 27 min
  142. Bit rate : 37 b/s
  143. Count of elements : 1337
  144. Stream size : 40.2 KiB (0%)
  145. Title : European
  146. Language : Spanish
  147. Default : No
  148. Forced : No

  149. Text #9
  150. ID : 11
  151. Format : UTF-8
  152. Codec ID : S_TEXT/UTF8
  153. Codec ID/Info : UTF-8 Plain Text
  154. Duration : 2 h 27 min
  155. Bit rate : 33 b/s
  156. Count of elements : 1263
  157. Stream size : 36.3 KiB (0%)
  158. Language : Finnish
  159. Default : No
  160. Forced : No

  161. Text #10
  162. ID : 12
  163. Format : UTF-8
  164. Codec ID : S_TEXT/UTF8
  165. Codec ID/Info : UTF-8 Plain Text
  166. Duration : 2 h 27 min
  167. Bit rate : 36 b/s
  168. Count of elements : 1356
  169. Stream size : 39.7 KiB (0%)
  170. Language : French
  171. Default : No
  172. Forced : No

  173. Text #11
  174. ID : 13
  175. Format : UTF-8
  176. Codec ID : S_TEXT/UTF8
  177. Codec ID/Info : UTF-8 Plain Text
  178. Duration : 2 h 27 min
  179. Bit rate : 60 b/s
  180. Count of elements : 1338
  181. Stream size : 64.7 KiB (0%)
  182. Language : Hebrew
  183. Default : No
  184. Forced : No

  185. Text #12
  186. ID : 14
  187. Format : UTF-8
  188. Codec ID : S_TEXT/UTF8
  189. Codec ID/Info : UTF-8 Plain Text
  190. Duration : 2 h 27 min
  191. Bit rate : 36 b/s
  192. Count of elements : 1209
  193. Stream size : 39.2 KiB (0%)
  194. Language : Hungarian
  195. Default : No
  196. Forced : No

  197. Text #13
  198. ID : 15
  199. Format : UTF-8
  200. Codec ID : S_TEXT/UTF8
  201. Codec ID/Info : UTF-8 Plain Text
  202. Duration : 2 h 27 min
  203. Bit rate : 37 b/s
  204. Count of elements : 1363
  205. Stream size : 40.5 KiB (0%)
  206. Language : Indonesian
  207. Default : No
  208. Forced : No

  209. Text #14
  210. ID : 16
  211. Format : UTF-8
  212. Codec ID : S_TEXT/UTF8
  213. Codec ID/Info : UTF-8 Plain Text
  214. Duration : 2 h 27 min
  215. Bit rate : 37 b/s
  216. Count of elements : 1373
  217. Stream size : 40.4 KiB (0%)
  218. Language : Italian
  219. Default : No
  220. Forced : No

  221. Text #15
  222. ID : 17
  223. Format : UTF-8
  224. Codec ID : S_TEXT/UTF8
  225. Codec ID/Info : UTF-8 Plain Text
  226. Duration : 2 h 27 min
  227. Bit rate : 35 b/s
  228. Count of elements : 1212
  229. Stream size : 38.5 KiB (0%)
  230. Language : Japanese
  231. Default : No
  232. Forced : No

  233. Text #16
  234. ID : 18
  235. Format : UTF-8
  236. Codec ID : S_TEXT/UTF8
  237. Codec ID/Info : UTF-8 Plain Text
  238. Duration : 2 h 27 min
  239. Bit rate : 41 b/s
  240. Count of elements : 1343
  241. Stream size : 45.2 KiB (0%)
  242. Language : Korean
  243. Default : No
  244. Forced : No

  245. Text #17
  246. ID : 19
  247. Format : UTF-8
  248. Codec ID : S_TEXT/UTF8
  249. Codec ID/Info : UTF-8 Plain Text
  250. Duration : 2 h 27 min
  251. Bit rate : 34 b/s
  252. Count of elements : 1340
  253. Stream size : 37.0 KiB (0%)
  254. Language : Norwegian Bokmal
  255. Default : No
  256. Forced : No

  257. Text #18
  258. ID : 20
  259. Format : UTF-8
  260. Codec ID : S_TEXT/UTF8
  261. Codec ID/Info : UTF-8 Plain Text
  262. Duration : 2 h 27 min
  263. Bit rate : 32 b/s
  264. Count of elements : 1198
  265. Stream size : 35.0 KiB (0%)
  266. Language : Dutch
  267. Default : No
  268. Forced : No

  269. Text #19
  270. ID : 21
  271. Format : UTF-8
  272. Codec ID : S_TEXT/UTF8
  273. Codec ID/Info : UTF-8 Plain Text
  274. Duration : 2 h 27 min
  275. Bit rate : 35 b/s
  276. Count of elements : 1381
  277. Stream size : 38.2 KiB (0%)
  278. Language : Polish
  279. Default : No
  280. Forced : No

  281. Text #20
  282. ID : 22
  283. Format : UTF-8
  284. Codec ID : S_TEXT/UTF8
  285. Codec ID/Info : UTF-8 Plain Text
  286. Duration : 2 h 17 min
  287. Bit rate : 38 b/s
  288. Count of elements : 1230
  289. Stream size : 38.3 KiB (0%)
  290. Language : Portuguese
  291. Default : No
  292. Forced : No

  293. Text #21
  294. ID : 23
  295. Format : UTF-8
  296. Codec ID : S_TEXT/UTF8
  297. Codec ID/Info : UTF-8 Plain Text
  298. Duration : 2 h 27 min
  299. Bit rate : 37 b/s
  300. Count of elements : 1355
  301. Stream size : 40.0 KiB (0%)
  302. Title : Brazilian
  303. Language : Portuguese
  304. Default : No
  305. Forced : No

  306. Text #22
  307. ID : 24
  308. Format : UTF-8
  309. Codec ID : S_TEXT/UTF8
  310. Codec ID/Info : UTF-8 Plain Text
  311. Duration : 2 h 27 min
  312. Bit rate : 41 b/s
  313. Count of elements : 1293
  314. Stream size : 44.4 KiB (0%)
  315. Language : Romanian
  316. Default : No
  317. Forced : No

  318. Text #23
  319. ID : 25
  320. Format : UTF-8
  321. Codec ID : S_TEXT/UTF8
  322. Codec ID/Info : UTF-8 Plain Text
  323. Duration : 2 h 27 min
  324. Bit rate : 61 b/s
  325. Count of elements : 1316
  326. Stream size : 66.0 KiB (0%)
  327. Language : Russian
  328. Default : No
  329. Forced : No

  330. Text #24
  331. ID : 26
  332. Format : UTF-8
  333. Codec ID : S_TEXT/UTF8
  334. Codec ID/Info : UTF-8 Plain Text
  335. Duration : 2 h 27 min
  336. Bit rate : 37 b/s
  337. Count of elements : 1248
  338. Stream size : 39.9 KiB (0%)
  339. Language : Swedish
  340. Default : No
  341. Forced : No

  342. Text #25
  343. ID : 27
  344. Format : UTF-8
  345. Codec ID : S_TEXT/UTF8
  346. Codec ID/Info : UTF-8 Plain Text
  347. Duration : 2 h 27 min
  348. Bit rate : 97 b/s
  349. Count of elements : 1369
  350. Stream size : 104 KiB (0%)
  351. Language : Thai
  352. Default : No
  353. Forced : No

  354. Text #26
  355. ID : 28
  356. Format : UTF-8
  357. Codec ID : S_TEXT/UTF8
  358. Codec ID/Info : UTF-8 Plain Text
  359. Duration : 2 h 27 min
  360. Bit rate : 37 b/s
  361. Count of elements : 1308
  362. Stream size : 39.9 KiB (0%)
  363. Language : Turkish
  364. Default : No
  365. Forced : No

  366. Text #27
  367. ID : 29
  368. Format : UTF-8
  369. Codec ID : S_TEXT/UTF8
  370. Codec ID/Info : UTF-8 Plain Text
  371. Duration : 2 h 27 min
  372. Bit rate : 51 b/s
  373. Count of elements : 1364
  374. Stream size : 55.9 KiB (0%)
  375. Language : Vietnamese
  376. Default : No
  377. Forced : No

  378. Text #28
  379. ID : 30
  380. Format : UTF-8
  381. Codec ID : S_TEXT/UTF8
  382. Codec ID/Info : UTF-8 Plain Text
  383. Duration : 2 h 27 min
  384. Bit rate : 37 b/s
  385. Count of elements : 1351
  386. Stream size : 40.5 KiB (0%)
  387. Title : Simplified
  388. Language : Chinese
  389. Default : No
  390. Forced : No

  391. Text #29
  392. ID : 31
  393. Format : UTF-8
  394. Codec ID : S_TEXT/UTF8
  395. Codec ID/Info : UTF-8 Plain Text
  396. Duration : 2 h 27 min
  397. Bit rate : 39 b/s
  398. Count of elements : 1379
  399. Stream size : 42.9 KiB (0%)
  400. Title : Traditional
  401. Language : Chinese
  402. Default : No
  403. Forced : No
复制代码

美国犯罪的末日 / 美国犯罪的最后日子/美国最后一宗罪案4k The.Last.Days.of.American.Crime.2020.2160p.NF.WEBRip.x265.10bit.SDR.DDP5.1.Atmos电影下载
美国最后一宗罪案4k The.Last.Days.of.American.Crime.2020.2160p.NF.WEBRip.x265.10bit.SDR.DDP5.1.Atmos【19.25 GB】
美国最后一宗罪案4k The.Last.Days.of.American.Crime.2020.2160p.NF.WEBRip.x265.10b.torrent (96.79 KB, 售价: 10 金币)
热门电影
关闭

站长通知上一条 /1 下一条

Copyright   ©2015-2016  4k群  Powered by©Discuz!  技术支持:4K群