我是女人4K.I.Am.Woman.2019.2160p电影下载

[复制链接]
朱古力小酥酥 发表于 2020-10-11 22:04 | 显示全部楼层 |阅读模式
电影频道
电影封面:
片  名: 我是女人4K
国  家: 其他   
电影分类: 传记   
分 辨 率: 4K(3840x2160)    
画质标准: 其他 
电影声道: 5.1声道   
资源大小: 11.48 GB
剧情简介: 埃文·彼得斯出演讲述澳洲女歌手海伦·瑞迪的传记片[我是女人](I Am Woman,暂译)。导演Unjoo Moon,影片聚焦上世纪七十年代澳洲知名女歌手海伦·瑞迪,片名出自瑞迪演唱的同名歌曲,该歌曲曾被选为当时女权运动的主题曲。蒂尔达·格哈姆-哈维饰瑞迪,埃文·彼得斯饰瑞迪的丈夫杰夫·沃尔德,也是她的经纪人。影片将在澳大利亚开机。
铿锵玫瑰/我是女人4K.I.Am.Woman.2019.2160p.STAN.WEBRip.AAC5.1.x265-4k电影信息
  1. Video
  2. ID : 1
  3. Format : HEVC
  4. Format/Info : High Efficiency Video Coding
  5. Format profile : Main@L5@High
  6. Codec ID : V_MPEGH/ISO/HEVC
  7. Duration : 1 h 56 min
  8. Bit rate : 13.7 Mb/s
  9. Width : 3 840 pixels
  10. Height : 2 160 pixels
  11. Display aspect ratio : 16:9
  12. Frame rate mode : Constant
  13. Frame rate : 24.000 FPS
  14. Color space : YUV
  15. Chroma subsampling : 4:2:0
  16. Bit depth : 8 bits
  17. Bits/(Pixel*Frame) : 0.069
  18. Stream size : 11.1 GiB (97%)
  19. Default : Yes
  20. Forced : No
  21. Color range : Limited
  22. Color primaries : BT.709
  23. Transfer characteristics : BT.709
  24. Matrix coefficients : BT.709

  25. Audio
  26. ID : 2
  27. Format : AAC LC
  28. Format/Info : Advanced Audio Codec Low Complexity
  29. Codec ID : A_AAC-2
  30. Duration : 1 h 56 min
  31. Bit rate : 445 kb/s
  32. Channel(s) : 6 channels
  33. Channel layout : C L R Ls Rs LFE
  34. Sampling rate : 48.0 kHz
  35. Frame rate : 46.875 FPS (1024 SPF)
  36. Compression mode : Lossy
  37. Stream size : 371 MiB (3%)
  38. Language : English
  39. Default : Yes
  40. Forced : No

  41. Text
  42. ID : 3
  43. Format : UTF-8
  44. Codec ID : S_TEXT/UTF8
  45. Codec ID/Info : UTF-8 Plain Text
  46. Duration : 1 h 52 min
  47. Bit rate : 69 b/s
  48. Count of elements : 1748
  49. Stream size : 57.0 KiB (0%)
  50. Language : English
  51. Default : No
  52. Forced : No
复制代码


铿锵玫瑰/我是女人4K.I.Am.Woman.2019.2160p.STAN.WEBRip.AAC5.1.x265-4K电影下载

我是女人4K.I.Am.Woman.2019.2160p.STAN.WEBRip.AAC5.1.x265【11.48 GB】
我是女人4K.I.Am.Woman.2019.2160p.STAN.WEBRip.AAC5.1.x265-playWEB.torrent (57.93 KB, 售价: 10 金币)
热门电影
关闭

站长通知上一条 /1 下一条

Copyright   ©2015-2016  4k群  Powered by©Discuz!  技术支持:4K群