加勒比海盗3:世界的尽头4K Pirates.of.the.Caribbean.At.Worlds.End.2007电影

[复制链接]
朱古力小酥酥 发表于 2020-10-13 20:47 | 显示全部楼层 |阅读模式
电影频道
电影封面:
片  名: 加勒比海盗3:世界的尽头4K
国  家: 美国   
电影分类: 动作   冒险   奇幻   
分 辨 率: 4K(3840x2160)    
画质标准: HDR    
电影声道: 其他
资源大小: 19.58 GB
剧情简介: 被大章鱼吞下去的杰克船长(强尼·戴普)进入了戴维·琼斯控制的“死界”——世界的尽头。为了拯救杰克,威尔·特纳(奥兰多·布鲁姆)、伊丽莎白(凯拉·奈特莉)和女巫等一行人也来到了“死界”。
  找到杰克,他们一行人解开迷咒,逃出了世界尽头。而此时狡猾的卡特勒·贝凯特(汤姆·霍兰德)已经得到了戴维·琼斯(比尔·奈伊)的心脏,由此挟持戴维·琼斯,掌控所有的公海海盗,为东印度公司攫取利益。为了应对危难,各地海盗头目秘密集会,展开是否释放女海神,杀掉戴维·琼斯的争论。
  原来女海神正是戴维·琼斯的旧情人,两人之间的微妙关系,成了双方交锋的关键。在平静的海面上,风雨降将至,最终的对决即将展开。每个人面临着怎样的命运?当最后的审判结束,大海能否重归往日的宁静?
加勒比海盜:魔盜王终极之战(港) / 神鬼奇航:世界的尽头(台) / 加勒比海盗3:死亡荣誉 / Pirates 3/加勒比海盗3:世界的尽头4K Pirates.of.the.Caribbean.At.Worlds.End.2007.iNTERNAL.HDR.2160p.WEB.H265电影信息
  1. Video
  2. ID : 1
  3. Format : HEVC
  4. Format/Info : High Efficiency Video Coding
  5. Format profile : Main 10@L5@High
  6. Codec ID : V_MPEGH/ISO/HEVC
  7. Duration : 2 h 48 min
  8. Bit rate : 16.4 Mb/s
  9. Width : 3 840 pixels
  10. Height : 2 160 pixels
  11. Display aspect ratio : 16:9
  12. Frame rate mode : Constant
  13. Frame rate : 23.976 (24000/1001) FPS
  14. Color space : YUV
  15. Chroma subsampling : 4:2:0
  16. Bit depth : 10 bits
  17. Bits/(Pixel*Frame) : 0.082
  18. Stream size : 19.3 GiB (98%)
  19. Default : Yes
  20. Forced : No
  21. Color range : Limited
  22. Color primaries : BT.2020
  23. Transfer characteristics : PQ
  24. Matrix coefficients : BT.2020 non-constant

  25. Audio
  26. ID : 2
  27. Format : E-AC-3
  28. Format/Info : Enhanced AC-3
  29. Commercial name : Dolby Digital Plus
  30. Codec ID : A_EAC3
  31. Duration : 2 h 48 min
  32. Bit rate mode : Constant
  33. Bit rate : 256 kb/s
  34. Channel(s) : 6 channels
  35. Channel layout : L R C LFE Ls Rs
  36. Sampling rate : 48.0 kHz
  37. Frame rate : 31.250 FPS (1536 SPF)
  38. Compression mode : Lossy
  39. Stream size : 309 MiB (2%)
  40. Title : English
  41. Language : English
  42. Service kind : Complete Main
  43. Default : Yes
  44. Forced : No

  45. Text #1
  46. ID : 3
  47. Format : UTF-8
  48. Codec ID : S_TEXT/UTF8
  49. Codec ID/Info : UTF-8 Plain Text
  50. Duration : 2 h 46 min
  51. Bit rate : 41 b/s
  52. Count of elements : 1651
  53. Stream size : 51.1 KiB (0%)
  54. Title : English [SDH]
  55. Language : English
  56. Default : No
  57. Forced : No

  58. Text #2
  59. ID : 4
  60. Format : UTF-8
  61. Codec ID : S_TEXT/UTF8
  62. Codec ID/Info : UTF-8 Plain Text
  63. Duration : 2 h 42 min
  64. Bit rate : 0 b/s
  65. Count of elements : 5
  66. Stream size : 124 Bytes (0%)
  67. Title : Spanish [Forced]
  68. Language : Spanish
  69. Default : No
  70. Forced : Yes

  71. Text #3
  72. ID : 5
  73. Format : UTF-8
  74. Codec ID : S_TEXT/UTF8
  75. Codec ID/Info : UTF-8 Plain Text
  76. Duration : 2 h 46 min
  77. Bit rate : 39 b/s
  78. Count of elements : 1508
  79. Stream size : 47.9 KiB (0%)
  80. Title : Spanish [Full]
  81. Language : Spanish
  82. Default : No
  83. Forced : No

  84. Text #4
  85. ID : 6
  86. Format : UTF-8
  87. Codec ID : S_TEXT/UTF8
  88. Codec ID/Info : UTF-8 Plain Text
  89. Duration : 2 h 46 min
  90. Bit rate : 36 b/s
  91. Count of elements : 1410
  92. Stream size : 44.6 KiB (0%)
  93. Title : Dutch [Full]
  94. Language : Dutch
  95. Default : No
  96. Forced : No
复制代码

加勒比海盜:魔盜王终极之战(港) / 神鬼奇航:世界的尽头(台) / 加勒比海盗3:死亡荣誉 / Pirates 3/加勒比海盗3:世界的尽头4K Pirates.of.the.Caribbean.At.Worlds.End.2007.iNTERNAL.HDR.2160p.WEB.H265电影下载

加勒比海盗3:世界的尽头4K Pirates.of.the.Caribbean.At.Worlds.End.2007.iNTERNAL.HDR.2160p.WEB.H265【19.58 GB】

加勒比海盗3:世界的尽头4K Pirates.of.the.Caribbean.At.Worlds.End.2007.iNT.torrent (98.55 KB, 售价: 10 金币)
热门电影
关闭

站长通知上一条 /1 下一条

Copyright   ©2015-2016  4k群  Powered by©Discuz!  技术支持:4K群