加勒比海盗2:聚魂棺4k Pirates.of.the.Caribbean.Dead.Mans.Chest.2006电影

[复制链接]
朱古力小酥酥 发表于 2020-10-13 20:50 | 显示全部楼层 |阅读模式
电影频道
电影封面:
片  名: 加勒比海盗2:聚魂棺4k
国  家: 美国   
电影分类: 动作   冒险   奇幻   
分 辨 率: 4K(3840x2160)    
画质标准: 其他 
电影声道: 其他
资源大小: 17.81 GB
剧情简介: 迷人的杰克(约翰尼•戴普 饰)船长又回来了,这次,他遇到了更为强大的敌人——传说中的不死人大卫•琼斯(比尔•奈伊 饰),他驾驶着让人恐惧的“飞行荷兰人”号快船,在速度与装备上,没有任何船能够超越它。杰克船长欠下琼斯一个血债,他必须赶在最后时限到来之前,找到破解的方法,否则他会永远背负血债,并且在余生永远成为琼斯的奴隶。
  当然,杰克船长的好朋友威尔•特纳(奥兰多•布鲁姆 饰)也被卷入了他的坏运气当中。因为杰克,威尔和伊丽莎白(凯拉•奈特莉 饰)的婚礼被迫取消,伊丽莎白还被关进了监狱,威尔为了救她,只能去寻找杰克。
  这次两个好朋友遇到了巨大神秘的海洋怪物、不友善的小岛土著、打扮华丽的占卜者戴尔玛,威尔失散多年的父亲--“拉靴带”比尔•特纳(斯特兰•斯卡斯加德)在关键时刻离奇现身,成为全局的转折点……
加勒比海盜:决战魔盜王(港) / 加勒比海盗:神鬼奇航2(台) / 加勒比海盗2:亡灵宝藏 / Pirates 2/加勒比海盗2:聚魂棺4k Pirates.of.the.Caribbean.Dead.Mans.Chest.2006.iNTERNAL.HDR.2160p.WEB.H265电影信息
  1. Video
  2. ID : 1
  3. Format : HEVC
  4. Format/Info : High Efficiency Video Coding
  5. Format profile : Main 10@L5@High
  6. Codec ID : V_MPEGH/ISO/HEVC
  7. Duration : 2 h 32 min
  8. Bit rate : 16.4 Mb/s
  9. Width : 3 840 pixels
  10. Height : 2 160 pixels
  11. Display aspect ratio : 16:9
  12. Frame rate mode : Constant
  13. Frame rate : 23.976 (24000/1001) FPS
  14. Color space : YUV
  15. Chroma subsampling : 4:2:0
  16. Bit depth : 10 bits
  17. Bits/(Pixel*Frame) : 0.083
  18. Stream size : 17.5 GiB (98%)
  19. Default : Yes
  20. Forced : No
  21. Color range : Limited
  22. Color primaries : BT.2020
  23. Transfer characteristics : PQ
  24. Matrix coefficients : BT.2020 non-constant

  25. Audio
  26. ID : 2
  27. Format : E-AC-3
  28. Format/Info : Enhanced AC-3
  29. Commercial name : Dolby Digital Plus
  30. Codec ID : A_EAC3
  31. Duration : 2 h 32 min
  32. Bit rate mode : Constant
  33. Bit rate : 256 kb/s
  34. Channel(s) : 6 channels
  35. Channel layout : L R C LFE Ls Rs
  36. Sampling rate : 48.0 kHz
  37. Frame rate : 31.250 FPS (1536 SPF)
  38. Compression mode : Lossy
  39. Stream size : 279 MiB (2%)
  40. Title : English
  41. Language : English
  42. Service kind : Complete Main
  43. Default : Yes
  44. Forced : No

  45. Text #1
  46. ID : 3
  47. Format : UTF-8
  48. Codec ID : S_TEXT/UTF8
  49. Codec ID/Info : UTF-8 Plain Text
  50. Duration : 2 h 29 min
  51. Bit rate : 41 b/s
  52. Count of elements : 1485
  53. Stream size : 45.5 KiB (0%)
  54. Title : English [SDH]
  55. Language : English
  56. Default : No
  57. Forced : No

  58. Text #2
  59. ID : 4
  60. Format : UTF-8
  61. Codec ID : S_TEXT/UTF8
  62. Codec ID/Info : UTF-8 Plain Text
  63. Duration : 11 s 240 ms
  64. Bit rate : 31 b/s
  65. Count of elements : 2
  66. Stream size : 44.0 Bytes (0%)
  67. Title : Castilian [Forced]
  68. Language : Spanish
  69. Default : No
  70. Forced : Yes

  71. Text #3
  72. ID : 5
  73. Format : UTF-8
  74. Codec ID : S_TEXT/UTF8
  75. Codec ID/Info : UTF-8 Plain Text
  76. Duration : 2 h 20 min
  77. Bit rate : 36 b/s
  78. Count of elements : 1136
  79. Stream size : 37.0 KiB (0%)
  80. Title : Castilian [Full]
  81. Language : Spanish
  82. Default : No
  83. Forced : No

  84. Text #4
  85. ID : 6
  86. Format : UTF-8
  87. Codec ID : S_TEXT/UTF8
  88. Codec ID/Info : UTF-8 Plain Text
  89. Duration : 34 min 10 s
  90. Bit rate : 0 b/s
  91. Count of elements : 3
  92. Stream size : 48.0 Bytes (0%)
  93. Title : Spanish [Forced]
  94. Language : Spanish
  95. Default : No
  96. Forced : Yes

  97. Text #5
  98. ID : 7
  99. Format : UTF-8
  100. Codec ID : S_TEXT/UTF8
  101. Codec ID/Info : UTF-8 Plain Text
  102. Duration : 2 h 20 min
  103. Bit rate : 38 b/s
  104. Count of elements : 1139
  105. Stream size : 40.0 KiB (0%)
  106. Title : Spanish [Full]
  107. Language : Spanish
  108. Default : No
  109. Forced : No

  110. Text #6
  111. ID : 8
  112. Format : UTF-8
  113. Codec ID : S_TEXT/UTF8
  114. Codec ID/Info : UTF-8 Plain Text
  115. Duration : 8 s 960 ms
  116. Bit rate : 41 b/s
  117. Count of elements : 2
  118. Stream size : 47.0 Bytes (0%)
  119. Title : French [Forced]
  120. Language : French
  121. Default : No
  122. Forced : Yes

  123. Text #7
  124. ID : 9
  125. Format : UTF-8
  126. Codec ID : S_TEXT/UTF8
  127. Codec ID/Info : UTF-8 Plain Text
  128. Duration : 2 h 20 min
  129. Bit rate : 33 b/s
  130. Count of elements : 1160
  131. Stream size : 34.8 KiB (0%)
  132. Title : French [Full]
  133. Language : French
  134. Default : No
  135. Forced : No

  136. Text #8
  137. ID : 10
  138. Format : UTF-8
  139. Codec ID : S_TEXT/UTF8
  140. Codec ID/Info : UTF-8 Plain Text
  141. Duration : 11 s 320 ms
  142. Bit rate : 26 b/s
  143. Count of elements : 2
  144. Stream size : 38.0 Bytes (0%)
  145. Title : French (Canada) [Forced]
  146. Language : French
  147. Default : No
  148. Forced : Yes

  149. Text #9
  150. ID : 11
  151. Format : UTF-8
  152. Codec ID : S_TEXT/UTF8
  153. Codec ID/Info : UTF-8 Plain Text
  154. Duration : 2 h 20 min
  155. Bit rate : 33 b/s
  156. Count of elements : 1259
  157. Stream size : 34.4 KiB (0%)
  158. Title : French (Canada) [Full]
  159. Language : French
  160. Default : No
  161. Forced : No

  162. Text #10
  163. ID : 12
  164. Format : UTF-8
  165. Codec ID : S_TEXT/UTF8
  166. Codec ID/Info : UTF-8 Plain Text
  167. Duration : 4 s 520 ms
  168. Bit rate : 33 b/s
  169. Count of elements : 1
  170. Stream size : 19.0 Bytes (0%)
  171. Title : German [Forced]
  172. Language : German
  173. Default : No
  174. Forced : Yes

  175. Text #11
  176. ID : 13
  177. Format : UTF-8
  178. Codec ID : S_TEXT/UTF8
  179. Codec ID/Info : UTF-8 Plain Text
  180. Duration : 2 h 19 min
  181. Bit rate : 37 b/s
  182. Count of elements : 1138
  183. Stream size : 38.5 KiB (0%)
  184. Title : German [Full]
  185. Language : German
  186. Default : No
  187. Forced : No

  188. Text #12
  189. ID : 14
  190. Format : UTF-8
  191. Codec ID : S_TEXT/UTF8
  192. Codec ID/Info : UTF-8 Plain Text
  193. Duration : 2 h 20 min
  194. Bit rate : 37 b/s
  195. Count of elements : 1140
  196. Stream size : 38.6 KiB (0%)
  197. Title : Portuguese [Full]
  198. Language : Portuguese
  199. Default : No
  200. Forced : No
复制代码

加勒比海盜:决战魔盜王(港) / 加勒比海盗:神鬼奇航2(台) / 加勒比海盗2:亡灵宝藏 / Pirates 2/加勒比海盗2:聚魂棺4k Pirates.of.the.Caribbean.Dead.Mans.Chest.2006.iNTERNAL.HDR.2160p.WEB.H265电影下载

加勒比海盗2:聚魂棺4k Pirates.of.the.Caribbean.Dead.Mans.Chest.2006.iNTERNAL.HDR.2160p.WEB.H265【17.81 GB】
加勒比海盗2:聚魂棺4k Pirates.of.the.Caribbean.Dead.Mans.Chest.2006.iNTER.torrent (89.82 KB, 售价: 10 金币)
热门电影
关闭

站长通知上一条 /1 下一条

Copyright   ©2015-2016  4k群  Powered by©Discuz!  技术支持:4K群