根西岛文学与土豆皮馅饼俱乐部4k电影下载

[复制链接]
朱古力小酥酥 发表于 2020-10-13 20:55 | 显示全部楼层 |阅读模式
电影频道
电影封面:
片  名: 根西岛文学与土豆皮馅饼俱乐部4k
国  家: 美国   
电影分类: 剧情   历史   爱情片   
分 辨 率: 4K(3840x2160)    
画质标准: 其他 
电影声道: 5.1声道   
资源大小: 30.99 GB
剧情简介: 本片根据安妮·巴罗斯、玛丽·安·谢弗同名小说改编。故事构建于二战后,讲述作家朱丽叶·艾什顿(莉莉·詹姆斯饰)与“根西岛文学与土豆皮馅饼俱乐部”之间互相了解并熟知的故事。
真爱收信中(台) / 纳粹铁蹄下的密函情书(港) / 根基岛的文学和土豆派协会 / Guernsey/根西岛文学与土豆皮馅饼俱乐部4k The.Guernsey.Literary.and.Potato.Peel.Pie.Society.2018.2160p.AMZN.WEBRip.DDP5.1.x264电影信息
  1. Video
  2. ID : 1
  3. Format : AVC
  4. Format/Info : Advanced Video Codec
  5. Format profile : High@L5.1
  6. Format settings : CABAC / 5 Ref Frames
  7. Format settings, CABAC : Yes
  8. Format settings, Reference frames : 5 frames
  9. Codec ID : V_MPEG4/ISO/AVC
  10. Duration : 2 h 3 min
  11. Bit rate : 35.3 Mb/s
  12. Width : 3 840 pixels
  13. Height : 2 080 pixels
  14. Display aspect ratio : 1.85:1
  15. Original display aspect ratio : 1.85:1
  16. Frame rate mode : Constant
  17. Frame rate : 24.000 FPS
  18. Color space : YUV
  19. Chroma subsampling : 4:2:0
  20. Bit depth : 8 bits
  21. Scan type : Progressive
  22. Bits/(Pixel*Frame) : 0.184
  23. Stream size : 30.4 GiB (98%)
  24. Writing library : x264 core 155 r2901 7d0ff22
  25. Encoding settings : cabac=1 / ref=5 / deblock=1:-3:-3 / analyse=0x3:0x133 / me=umh / subme=10 / psy=1 / psy_rd=1.00:0.00 / mixed_ref=1 / me_range=48 / chroma_me=1 / trellis=2 / 8x8dct=1 / cqm=0 / deadzone=21,11 / fast_pskip=0 / chroma_qp_offset=-2 / threads=12 / lookahead_threads=2 / sliced_threads=0 / nr=0 / decimate=0 / interlaced=0 / bluray_compat=0 / constrained_intra=0 / bframes=8 / b_pyramid=2 / b_adapt=2 / b_bias=0 / direct=3 / weightb=1 / open_gop=0 / weightp=2 / keyint=250 / keyint_min=24 / scenecut=40 / intra_refresh=0 / rc=crf / mbtree=0 / crf=17.0 / qcomp=0.60 / qpmin=0 / qpmax=69 / qpstep=4 / ip_ratio=1.40 / pb_ratio=1.30 / aq=3:0.80
  26. Default : Yes
  27. Forced : No

  28. Audio
  29. ID : 2
  30. Format : E-AC-3
  31. Format/Info : Enhanced AC-3
  32. Commercial name : Dolby Digital Plus
  33. Codec ID : A_EAC3
  34. Duration : 2 h 3 min
  35. Bit rate mode : Constant
  36. Bit rate : 640 kb/s
  37. Channel(s) : 6 channels
  38. Channel layout : L R C LFE Ls Rs
  39. Sampling rate : 48.0 kHz
  40. Frame rate : 31.250 FPS (1536 SPF)
  41. Compression mode : Lossy
  42. Stream size : 565 MiB (2%)
  43. Language : English
  44. Service kind : Complete Main
  45. Default : Yes
  46. Forced : No
复制代码

真爱收信中(台) / 纳粹铁蹄下的密函情书(港) / 根基岛的文学和土豆派协会 / Guernsey/根西岛文学与土豆皮馅饼俱乐部4k The.Guernsey.Literary.and.Potato.Peel.Pie.Society.2018.2160p.AMZN.WEBRip.DDP5.1.x264电影下载
根西岛文学与土豆皮馅饼俱乐部4k The.Guernsey.Literary.and.Potato.Peel.Pie.Society.2018.2160p.AMZN.WEBRip.DDP5.1.x264【30.99 GB】
根西岛文学与土豆皮馅饼俱乐部4k The.Guernsey.Literary.and.Potato.Peel.Pie.torrent (78.08 KB, 售价: 10 金币)
热门电影
关闭

站长通知上一条 /1 下一条

Copyright   ©2015-2016  4k群  Powered by©Discuz!  技术支持:4K群