热气球飞行家4K.The.Aeronauts.2019.2160p电影下载

[复制链接]
朱古力小酥酥 发表于 2020-10-14 21:58 | 显示全部楼层 |阅读模式
电影频道
电影封面:
片  名: 热气球飞行家4K
国  家: 美国   
电影分类: 冒险   
分 辨 率: 4K(3840x2160)    
画质标准: 其他 
电影声道: 其他
资源大小: 30.58 GB
剧情简介: 讲述在1862年,热气球驾驶员Amelia Wren和科学家James Glaisher踏上了一段非凡的旅程,去寻找天堂的奥秘。在飞行过程中,他们的飞行高度突破了世界纪录,也有了令人惊叹的发现。然而当他们即将达到大气层时,被迫为了生存而展开史诗般的斗争。
热气球驾驶员/天际传奇(台)/热气球飞行家4K.The.Aeronauts.2019.2160p.AMZN.WEBRip.DDP5.1.x264-电影信息
  1. Video
  2. ID : 1
  3. Format : AVC
  4. Format/Info : Advanced Video Codec
  5. Format profile : High@L5.1
  6. Format settings : CABAC / 5 Ref Frames
  7. Format settings, CABAC : Yes
  8. Format settings, Reference frames : 5 frames
  9. Codec ID : V_MPEG4/ISO/AVC
  10. Duration : 1 h 40 min
  11. Bit rate : 42.9 Mb/s
  12. Width : 3 840 pixels
  13. Height : 2 080 pixels
  14. Display aspect ratio : 1.85:1
  15. Frame rate mode : Constant
  16. Frame rate : 23.976 (24000/1001) FPS
  17. Color space : YUV
  18. Chroma subsampling : 4:2:0
  19. Bit depth : 8 bits
  20. Scan type : Progressive
  21. Bits/(Pixel*Frame) : 0.224
  22. Stream size : 30.1 GiB (99%)
  23. Writing library : x264 core 158 r2984 3759fcb
  24. Encoding settings : cabac=1 / ref=5 / deblock=1:-3:-3 / analyse=0x3:0x133 / me=umh / subme=10 / psy=1 / psy_rd=1.00:0.00 / mixed_ref=1 / me_range=48 / chroma_me=1 / trellis=2 / 8x8dct=1 / cqm=0 / deadzone=21,11 / fast_pskip=0 / chroma_qp_offset=-2 / threads=24 / lookahead_threads=4 / sliced_threads=0 / nr=0 / decimate=0 / interlaced=0 / bluray_compat=0 / constrained_intra=0 / bframes=8 / b_pyramid=2 / b_adapt=2 / b_bias=0 / direct=3 / weightb=1 / open_gop=0 / weightp=2 / keyint=250 / keyint_min=23 / scenecut=40 / intra_refresh=0 / rc=crf / mbtree=0 / crf=17.0 / qcomp=0.60 / qpmin=0 / qpmax=69 / qpstep=4 / ip_ratio=1.30 / pb_ratio=1.20 / aq=3:0.80
  25. Default : Yes
  26. Forced : No

  27. Audio
  28. ID : 2
  29. Format : E-AC-3
  30. Format/Info : Enhanced AC-3
  31. Commercial name : Dolby Digital Plus
  32. Codec ID : A_EAC3
  33. Duration : 1 h 40 min
  34. Bit rate mode : Constant
  35. Bit rate : 640 kb/s
  36. Channel(s) : 6 channels
  37. Channel layout : L R C LFE Ls Rs
  38. Sampling rate : 48.0 kHz
  39. Frame rate : 31.250 FPS (1536 SPF)
  40. Compression mode : Lossy
  41. Stream size : 460 MiB (1%)
  42. Language : English
  43. Service kind : Complete Main
  44. Default : Yes
  45. Forced : No

  46. Text #1
  47. ID : 3
  48. Format : UTF-8
  49. Codec ID : S_TEXT/UTF8
  50. Codec ID/Info : UTF-8 Plain Text
  51. Duration : 1 h 39 min
  52. Bit rate : 60 b/s
  53. Count of elements : 1538
  54. Stream size : 44.0 KiB (0%)
  55. Language : English
  56. Default : No
  57. Forced : No

  58. Text #2
  59. ID : 4
  60. Format : UTF-8
  61. Codec ID : S_TEXT/UTF8
  62. Codec ID/Info : UTF-8 Plain Text
  63. Duration : 1 h 39 min
  64. Bit rate : 61 b/s
  65. Count of elements : 1606
  66. Stream size : 44.5 KiB (0%)
  67. Title : SDH
  68. Language : English
  69. Default : No
  70. Forced : No

  71. Text #3
  72. ID : 5
  73. Format : UTF-8
  74. Codec ID : S_TEXT/UTF8
  75. Codec ID/Info : UTF-8 Plain Text
  76. Duration : 1 h 35 min
  77. Bit rate : 65 b/s
  78. Count of elements : 985
  79. Stream size : 45.9 KiB (0%)
  80. Language : Arabic
  81. Default : No
  82. Forced : No

  83. Text #4
  84. ID : 6
  85. Format : UTF-8
  86. Codec ID : S_TEXT/UTF8
  87. Codec ID/Info : UTF-8 Plain Text
  88. Duration : 1 h 35 min
  89. Bit rate : 39 b/s
  90. Count of elements : 996
  91. Stream size : 27.5 KiB (0%)
  92. Language : Danish
  93. Default : No
  94. Forced : No

  95. Text #5
  96. ID : 7
  97. Format : UTF-8
  98. Codec ID : S_TEXT/UTF8
  99. Codec ID/Info : UTF-8 Plain Text
  100. Duration : 1 h 35 min
  101. Bit rate : 44 b/s
  102. Count of elements : 1013
  103. Stream size : 30.9 KiB (0%)
  104. Title : Latinoamérica
  105. Language : Spanish
  106. Default : No
  107. Forced : No

  108. Text #6
  109. ID : 8
  110. Format : UTF-8
  111. Codec ID : S_TEXT/UTF8
  112. Codec ID/Info : UTF-8 Plain Text
  113. Duration : 1 h 35 min
  114. Bit rate : 44 b/s
  115. Count of elements : 1013
  116. Stream size : 30.9 KiB (0%)
  117. Title : España
  118. Language : Spanish
  119. Default : No
  120. Forced : No

  121. Text #7
  122. ID : 9
  123. Format : UTF-8
  124. Codec ID : S_TEXT/UTF8
  125. Codec ID/Info : UTF-8 Plain Text
  126. Duration : 1 h 35 min
  127. Bit rate : 44 b/s
  128. Count of elements : 985
  129. Stream size : 31.1 KiB (0%)
  130. Language : Finnish
  131. Default : No
  132. Forced : No

  133. Text #8
  134. ID : 10
  135. Format : UTF-8
  136. Codec ID : S_TEXT/UTF8
  137. Codec ID/Info : UTF-8 Plain Text
  138. Duration : 1 h 35 min
  139. Bit rate : 41 b/s
  140. Count of elements : 1013
  141. Stream size : 29.1 KiB (0%)
  142. Language : French
  143. Default : No
  144. Forced : No

  145. Text #9
  146. ID : 11
  147. Format : UTF-8
  148. Codec ID : S_TEXT/UTF8
  149. Codec ID/Info : UTF-8 Plain Text
  150. Duration : 1 h 35 min
  151. Bit rate : 57 b/s
  152. Count of elements : 987
  153. Stream size : 40.6 KiB (0%)
  154. Language : Hebrew
  155. Default : No
  156. Forced : No

  157. Text #10
  158. ID : 12
  159. Format : UTF-8
  160. Codec ID : S_TEXT/UTF8
  161. Codec ID/Info : UTF-8 Plain Text
  162. Duration : 1 h 35 min
  163. Bit rate : 123 b/s
  164. Count of elements : 1001
  165. Stream size : 86.6 KiB (0%)
  166. Language : Hindi
  167. Default : No
  168. Forced : No

  169. Text #11
  170. ID : 13
  171. Format : UTF-8
  172. Codec ID : S_TEXT/UTF8
  173. Codec ID/Info : UTF-8 Plain Text
  174. Duration : 1 h 35 min
  175. Bit rate : 47 b/s
  176. Count of elements : 1012
  177. Stream size : 33.1 KiB (0%)
  178. Language : Italian
  179. Default : No
  180. Forced : No

  181. Text #12
  182. ID : 14
  183. Format : UTF-8
  184. Codec ID : S_TEXT/UTF8
  185. Codec ID/Info : UTF-8 Plain Text
  186. Duration : 1 h 35 min
  187. Bit rate : 52 b/s
  188. Count of elements : 997
  189. Stream size : 37.0 KiB (0%)
  190. Language : Korean
  191. Default : No
  192. Forced : No

  193. Text #13
  194. ID : 15
  195. Format : UTF-8
  196. Codec ID : S_TEXT/UTF8
  197. Codec ID/Info : UTF-8 Plain Text
  198. Duration : 1 h 35 min
  199. Bit rate : 43 b/s
  200. Count of elements : 964
  201. Stream size : 30.6 KiB (0%)
  202. Language : Norwegian Bokmal
  203. Default : No
  204. Forced : No

  205. Text #14
  206. ID : 16
  207. Format : UTF-8
  208. Codec ID : S_TEXT/UTF8
  209. Codec ID/Info : UTF-8 Plain Text
  210. Duration : 1 h 35 min
  211. Bit rate : 40 b/s
  212. Count of elements : 908
  213. Stream size : 28.3 KiB (0%)
  214. Language : Dutch
  215. Default : No
  216. Forced : No

  217. Text #15
  218. ID : 17
  219. Format : UTF-8
  220. Codec ID : S_TEXT/UTF8
  221. Codec ID/Info : UTF-8 Plain Text
  222. Duration : 1 h 35 min
  223. Bit rate : 44 b/s
  224. Count of elements : 946
  225. Stream size : 31.0 KiB (0%)
  226. Language : Polish
  227. Default : No
  228. Forced : No

  229. Text #16
  230. ID : 18
  231. Format : UTF-8
  232. Codec ID : S_TEXT/UTF8
  233. Codec ID/Info : UTF-8 Plain Text
  234. Duration : 1 h 35 min
  235. Bit rate : 48 b/s
  236. Count of elements : 1010
  237. Stream size : 33.9 KiB (0%)
  238. Language : Portuguese
  239. Default : No
  240. Forced : No

  241. Text #17
  242. ID : 19
  243. Format : UTF-8
  244. Codec ID : S_TEXT/UTF8
  245. Codec ID/Info : UTF-8 Plain Text
  246. Duration : 1 h 35 min
  247. Bit rate : 68 b/s
  248. Count of elements : 987
  249. Stream size : 47.8 KiB (0%)
  250. Language : Russian
  251. Default : No
  252. Forced : No

  253. Text #18
  254. ID : 20
  255. Format : UTF-8
  256. Codec ID : S_TEXT/UTF8
  257. Codec ID/Info : UTF-8 Plain Text
  258. Duration : 1 h 35 min
  259. Bit rate : 44 b/s
  260. Count of elements : 867
  261. Stream size : 31.1 KiB (0%)
  262. Language : Swedish
  263. Default : No
  264. Forced : No

  265. Text #19
  266. ID : 21
  267. Format : UTF-8
  268. Codec ID : S_TEXT/UTF8
  269. Codec ID/Info : UTF-8 Plain Text
  270. Duration : 1 h 35 min
  271. Bit rate : 133 b/s
  272. Count of elements : 987
  273. Stream size : 93.2 KiB (0%)
  274. Language : Tamil
  275. Default : No
  276. Forced : No

  277. Text #20
  278. ID : 22
  279. Format : UTF-8
  280. Codec ID : S_TEXT/UTF8
  281. Codec ID/Info : UTF-8 Plain Text
  282. Duration : 1 h 35 min
  283. Bit rate : 122 b/s
  284. Count of elements : 986
  285. Stream size : 85.9 KiB (0%)
  286. Language : Telugu
  287. Default : No
  288. Forced : No

  289. Text #21
  290. ID : 23
  291. Format : UTF-8
  292. Codec ID : S_TEXT/UTF8
  293. Codec ID/Info : UTF-8 Plain Text
  294. Duration : 1 h 35 min
  295. Bit rate : 117 b/s
  296. Count of elements : 984
  297. Stream size : 82.0 KiB (0%)
  298. Language : Thai
  299. Default : No
  300. Forced : No

  301. Text #22
  302. ID : 24
  303. Format : UTF-8
  304. Codec ID : S_TEXT/UTF8
  305. Codec ID/Info : UTF-8 Plain Text
  306. Duration : 1 h 35 min
  307. Bit rate : 47 b/s
  308. Count of elements : 963
  309. Stream size : 33.0 KiB (0%)
  310. Language : Turkish
  311. Default : No
  312. Forced : No

  313. Text #23
  314. ID : 25
  315. Format : UTF-8
  316. Codec ID : S_TEXT/UTF8
  317. Codec ID/Info : UTF-8 Plain Text
  318. Duration : 1 h 35 min
  319. Bit rate : 42 b/s
  320. Count of elements : 1012
  321. Stream size : 29.6 KiB (0%)
  322. Title : 中文(简体)
  323. Language : Chinese
  324. Default : No
  325. Forced : No

  326. Text #24
  327. ID : 26
  328. Format : UTF-8
  329. Codec ID : S_TEXT/UTF8
  330. Codec ID/Info : UTF-8 Plain Text
  331. Duration : 1 h 35 min
  332. Bit rate : 39 b/s
  333. Count of elements : 1013
  334. Stream size : 27.7 KiB (0%)
  335. Title : 中文(繁體)
  336. Language : Chinese
  337. Default : No
  338. Forced : No

  339. Menu
  340. 00:00:00.000 : en:Studio Logo
  341. 00:00:39.000 : en:Acknowledgement
  342. 00:00:44.000 : en:Doubt is there to be listened to
  343. 00:03:39.000 : en:Title Sequence
  344. 00:03:46.000 : en:Preparing for flight
  345. 00:09:54.000 : en:Flying over London
  346. 00:14:13.000 : en:James wants to makes a scientific impact
  347. 00:18:37.000 : en:The safest way is up
  348. 00:27:27.000 : en:The silence of the upper atmosphere
  349. 00:32:23.000 : en:A proposal to rewrite the rules of the air
  350. 00:40:14.000 : en:Opening up about Pierre
  351. 00:45:15.000 : en:The truth about fear and loss
  352. 00:52:51.000 : en:Risking everything to break records
  353. 00:59:09.000 : en:Facing her fear
  354. 01:02:04.000 : en:The truth about Pierre
  355. 01:07:17.000 : en:The dangers of thin air
  356. 01:15:26.000 : en:Waiting for the descent
  357. 01:23:13.000 : en:Bringing the stars closer
  358. 01:26:04.000 : en:Quick thinking to save lives
  359. 01:31:32.000 : en:All in the name of discovery
  360. 01:36:28.000 : en:End Credits
复制代码

热气球驾驶员/天际传奇(台)/热气球飞行家4K.The.Aeronauts.2019.2160p.AMZN.WEBRip.DDP5.1.x264-电影下载
热气球飞行家4K.The.Aeronauts.2019.2160p.AMZN.WEBRip.DDP5.1.x264【30.58 GB】
热气球驾驶员4K.The.Aeronauts.2019.2160p.AMZN.WEBRip.DDP5.1.x264-.torrent (76.99 KB, 售价: 10 金币)
热门电影
关闭

站长通知上一条 /1 下一条

Copyright   ©2015-2016  4k群  Powered by©Discuz!  技术支持:4K群