老人和枪4k The.Old.Man.and.the.Gun.2018.2160p电影下载

[复制链接]
朱古力小酥酥 发表于 2020-10-15 21:59 | 显示全部楼层 |阅读模式
电影频道
电影封面:
片  名: 老人和枪4k
国  家: 美国   
电影分类: 犯罪   剧情   喜剧   
分 辨 率: 4K(3840x2160)    
画质标准: 其他 
电影声道: 5.1声道   
资源大小: 30.18 GB
剧情简介: 奥斯卡影帝凯西·阿弗莱克(Casey Affleck)日前加盟新片《老人与枪》(Old Man And The Gun),该片由罗伯特·雷德福(Robert Redford)主演,根据《纽约客》上的一篇文章改编。
  福瑞斯特·塔克(Forrest Tucker)打从少年时就是个不法之徒,抢银行就是他的职业,进过十几次班房的经历还让他练就了“越狱”的本领——一共18次越狱,最近一次时他已70岁高龄!
  《老人与枪》着重刻画塔克暮年的一次抢劫,罗伯特·雷德福将饰演“塔克”,凯西·阿弗莱克饰演被这位独特罪犯深深吸引的侦探。此外还有67岁的奥斯卡影后茜茜·斯帕塞克(Sissy Spacek),她会饰演爱上这名老年罪犯的女士。
  《老人与枪》由大卫·劳瑞(David Lowery)导演,福克斯探照灯公司发行,今年4月3日将在辛辛那提开机。
老人与枪/老人和枪4k The.Old.Man.and.the.Gun.2018.2160p.AMZN.WEBRip.DDP5.1.x264电影信息
  1. Video
  2. ID : 1
  3. Format : AVC
  4. Format/Info : Advanced Video Codec
  5. Format profile : High@L5.1
  6. Format settings : CABAC / 7 Ref Frames
  7. Format settings, CABAC : Yes
  8. Format settings, Reference frames : 7 frames
  9. Codec ID : V_MPEG4/ISO/AVC
  10. Duration : 1 h 33 min
  11. Bit rate : 45.8 Mb/s
  12. Width : 3 840 pixels
  13. Height : 1 604 pixels
  14. Display aspect ratio : 2.40:1
  15. Frame rate mode : Constant
  16. Frame rate : 23.976 (24000/1001) FPS
  17. Color space : YUV
  18. Chroma subsampling : 4:2:0
  19. Bit depth : 8 bits
  20. Scan type : Progressive
  21. Bits/(Pixel*Frame) : 0.310
  22. Stream size : 29.8 GiB (99%)
  23. Writing library : x264 core 155 r2901 7d0ff22
  24. Encoding settings : cabac=1 / ref=7 / deblock=1:-3:-3 / analyse=0x3:0x133 / me=umh / subme=10 / psy=1 / psy_rd=1.00:0.00 / mixed_ref=1 / me_range=48 / chroma_me=1 / trellis=2 / 8x8dct=1 / cqm=0 / deadzone=21,11 / fast_pskip=0 / chroma_qp_offset=-2 / threads=12 / lookahead_threads=2 / sliced_threads=0 / nr=0 / decimate=1 / interlaced=0 / bluray_compat=0 / constrained_intra=0 / bframes=8 / b_pyramid=2 / b_adapt=2 / b_bias=0 / direct=3 / weightb=1 / open_gop=0 / weightp=2 / keyint=250 / keyint_min=23 / scenecut=40 / intra_refresh=0 / rc=crf / mbtree=0 / crf=17.0 / qcomp=0.60 / qpmin=0 / qpmax=69 / qpstep=4 / ip_ratio=1.40 / pb_ratio=1.30 / aq=3:0.70
  25. Default : Yes
  26. Forced : No

  27. Audio
  28. ID : 2
  29. Format : E-AC-3
  30. Format/Info : Enhanced AC-3
  31. Commercial name : Dolby Digital Plus
  32. Codec ID : A_EAC3
  33. Duration : 1 h 33 min
  34. Bit rate mode : Constant
  35. Bit rate : 640 kb/s
  36. Channel(s) : 6 channels
  37. Channel layout : L R C LFE Ls Rs
  38. Sampling rate : 48.0 kHz
  39. Frame rate : 31.250 FPS (1536 SPF)
  40. Compression mode : Lossy
  41. Delay relative to video : 11 ms
  42. Stream size : 426 MiB (1%)
  43. Language : English
  44. Service kind : Complete Main
  45. Default : Yes
  46. Forced : No

  47. Text #1
  48. ID : 3
  49. Format : UTF-8
  50. Codec ID : S_TEXT/UTF8
  51. Codec ID/Info : UTF-8 Plain Text
  52. Duration : 1 h 29 min
  53. Bit rate : 59 b/s
  54. Count of elements : 1282
  55. Stream size : 39.2 KiB (0%)
  56. Language : English
  57. Default : No
  58. Forced : No
复制代码

老人与枪/老人和枪4k The.Old.Man.and.the.Gun.2018.2160p.AMZN.WEBRip.DDP5.1.x264电影下载
老人和枪4k The.Old.Man.and.the.Gun.2018.2160p.AMZN.WEBRip.DDP5.1.x264【30.18 GB】
老人和枪4k The.Old.Man.and.the.Gun.2018.2160p.AMZN.WEBRip.DDP5.1.x264-AJP69.torrent (75.99 KB, 售价: 10 金币)
热门电影
关闭

站长通知上一条 /1 下一条

Copyright   ©2015-2016  4k群  Powered by©Discuz!  技术支持:4K群