赛马皮特4k Lean.On.Pete.2017.2160p-4k电影下载

[复制链接]
朱古力小酥酥 发表于 2020-10-15 22:03 | 显示全部楼层 |阅读模式
电影频道
电影封面:
片  名: 赛马皮特4k
国  家:  
电影分类: 冒险   剧情   
分 辨 率: 4K(3840x2160)    
画质标准: 其他 
电影声道: 5.1声道   
资源大小: 47.53 GB
剧情简介: 单亲家庭的男孩一直在寻找安稳和归属,他将最亲密的情感寄托在赛马皮特的身上。当皮特输了好几场比赛,即将被送往屠宰场的时候,他连夜奔赴多年未联系的姑姑家……海格借一段漫长的寻“家”之旅带出了一系列社会问题和男性成长主题,赛马皮特更像是查理生命中的一道风景。主角获威尼斯电影节新锐演员奖。
  参加2018年北京国际电影节展映。
与马流浪/赛马皮特4k Lean.On.Pete.2017.2160p.AMZN.WEBRip.x264.DTS-HD.MA.5.1电影信息
  1. Video
  2. ID : 1
  3. Format : AVC
  4. Format/Info : Advanced Video Codec
  5. Format profile : High@L5.1
  6. Format settings : CABAC / 6 Ref Frames
  7. Format settings, CABAC : Yes
  8. Format settings, Reference frames : 6 frames
  9. Codec ID : V_MPEG4/ISO/AVC
  10. Duration : 2 h 1 min
  11. Bit rate : 52.1 Mb/s
  12. Width : 3 840 pixels
  13. Height : 2 080 pixels
  14. Display aspect ratio : 1.85:1
  15. Frame rate mode : Constant
  16. Frame rate : 23.976 (24000/1001) FPS
  17. Color space : YUV
  18. Chroma subsampling : 4:2:0
  19. Bit depth : 8 bits
  20. Scan type : Progressive
  21. Bits/(Pixel*Frame) : 0.272
  22. Stream size : 44.4 GiB (93%)
  23. Writing library : x264 core 158 r2984 3759fcb
  24. Encoding settings : cabac=1 / ref=6 / deblock=1:-3:-3 / analyse=0x3:0x113 / me=umh / subme=10 / psy=1 / psy_rd=1.00:0.00 / mixed_ref=1 / me_range=48 / chroma_me=1 / trellis=2 / 8x8dct=1 / cqm=0 / deadzone=21,11 / fast_pskip=0 / chroma_qp_offset=-2 / threads=24 / lookahead_threads=4 / sliced_threads=0 / nr=0 / decimate=0 / interlaced=0 / bluray_compat=0 / constrained_intra=0 / bframes=8 / b_pyramid=2 / b_adapt=2 / b_bias=0 / direct=1 / weightb=1 / open_gop=0 / weightp=2 / keyint=250 / keyint_min=23 / scenecut=40 / intra_refresh=0 / rc=crf / mbtree=0 / crf=17.0 / qcomp=0.60 / qpmin=0 / qpmax=69 / qpstep=4 / ip_ratio=1.30 / pb_ratio=1.20 / aq=3:0.80
  25. Default : Yes
  26. Forced : No

  27. Audio
  28. ID : 2
  29. Format : DTS XLL
  30. Format/Info : Digital Theater Systems
  31. Commercial name : DTS-HD Master Audio
  32. Codec ID : A_DTS
  33. Duration : 2 h 1 min
  34. Bit rate mode : Variable
  35. Bit rate : 3 697 kb/s
  36. Channel(s) : 6 channels
  37. Channel layout : C L R Ls Rs LFE
  38. Sampling rate : 48.0 kHz
  39. Frame rate : 93.750 FPS (512 SPF)
  40. Bit depth : 24 bits
  41. Compression mode : Lossless
  42. Stream size : 3.15 GiB (7%)
  43. Title : Lean.on.Pete.2017.1080p.BluRay.REMUX.AVC.DTS-HD.MA.5.1-FGT
  44. Language : English
  45. Default : Yes
  46. Forced : No

  47. Text #1
  48. ID : 3
  49. Format : UTF-8
  50. Codec ID : S_TEXT/UTF8
  51. Codec ID/Info : UTF-8 Plain Text
  52. Duration : 1 h 56 min
  53. Bit rate : 52 b/s
  54. Count of elements : 1679
  55. Stream size : 44.7 KiB (0%)
  56. Language : English
  57. Default : No
  58. Forced : No
复制代码

与马流浪/赛马皮特4k Lean.On.Pete.2017.2160p.AMZN.WEBRip.x264.DTS-HD.MA.5.1电影下载

赛马皮特4k Lean.On.Pete.2017.2160p.AMZN.WEBRip.x264.DTS-HD.MA.5.1【47.53 GB】
赛马皮特4k Lean.On.Pete.2017.2160p.AMZN.WEBRip.x264.DTS-HD.MA.5.1-AJP69.torrent (119.37 KB, 售价: 10 金币)
热门电影
关闭

站长通知上一条 /1 下一条

Copyright   ©2015-2016  4k群  Powered by©Discuz!  技术支持:4K群