雪宝的冰雪大冒险4k Olafs.Frozen.Adventure.2017.2160p-4k电影下载

[复制链接]
朱古力小酥酥 发表于 2020-10-15 22:06 | 显示全部楼层 |阅读模式
电影频道
电影封面:
片  名: 雪宝的冰雪大冒险4k
国  家: 美国   
电影分类: 冒险   奇幻   动画   歌舞   
分 辨 率: 4K(3840x2160)    
画质标准: 其他 
电影声道: 5.1声道   
资源大小: 1.71 GB
剧情简介: 在阿伦黛尔城堡大门打开后的第一个圣诞节前,安娜和艾莎为所有人准备了一个惊喜派对。但王国里的人们都不来参加,而是要根据自己家的传统与家人一起过节。安娜和艾莎多年没有在一起过圣诞节,因此没有家庭传统!为此,雪宝踏上了一场为姐妹俩寻找最棒传统的冒险……
  《雪宝的冰雪大冒险》是迪士尼动画电影《冰雪奇缘》(Frozen)的第二部衍生短片,在2017年上映的皮克斯电影《寻梦环游记》(Coco)前贴片放映。
雪宝的佳节冒险 / 冰雪奇缘番外短片/雪宝的冰雪大冒险4k Olafs.Frozen.Adventure.2017.2160p.DSNP.WEBRip.x265.10bit.HDR.DDP5.1电影信息
  1. Video
  2. ID : 1
  3. Format : HEVC
  4. Format/Info : High Efficiency Video Coding
  5. Format profile : Main 10@L5@Main
  6. Codec ID : V_MPEGH/ISO/HEVC
  7. Duration : 21 min 52 s
  8. Bit rate : 10.9 Mb/s
  9. Width : 3 840 pixels
  10. Height : 2 160 pixels
  11. Display aspect ratio : 16:9
  12. Frame rate mode : Constant
  13. Frame rate : 23.976 (24000/1001) FPS
  14. Color space : YUV
  15. Chroma subsampling : 4:2:0
  16. Bit depth : 10 bits
  17. Bits/(Pixel*Frame) : 0.055
  18. Stream size : 1.67 GiB (98%)
  19. Writing library : x265 3.2+8-7fc1f6ef2b96:[Windows][MSVC 1923][64 bit] 10bit
  20. Encoding settings : cpuid=1111039 / frame-threads=4 / numa-pools=28 / wpp / no-pmode / no-pme / no-psnr / no-ssim / log-level=2 / input-csp=1 / input-res=3840x2160 / interlace=0 / total-frames=0 / level-idc=0 / high-tier=1 / uhd-bd=0 / ref=5 / no-allow-non-conformance / repeat-headers / annexb / no-aud / no-hrd / info / hash=0 / no-temporal-layers / open-gop / min-keyint=23 / keyint=250 / gop-lookahead=0 / bframes=8 / b-adapt=2 / b-pyramid / bframe-bias=0 / rc-lookahead=40 / lookahead-slices=0 / scenecut=40 / radl=0 / no-splice / no-intra-refresh / ctu=64 / min-cu-size=8 / no-rect / no-amp / max-tu-size=32 / tu-inter-depth=3 / tu-intra-depth=3 / limit-tu=0 / rdoq-level=1 / dynamic-rd=0.00 / no-ssim-rd / signhide / no-tskip / nr-intra=0 / nr-inter=0 / no-constrained-intra / strong-intra-smoothing / max-merge=5 / limit-refs=0 / no-limit-modes / me=3 / subme=4 / merange=57 / temporal-mvp / no-frame-dup / no-hme / weightp / weightb / no-analyze-src-pics / deblock=0:0 / no-sao / no-sao-non-deblock / rd=6 / selective-sao=0 / no-early-skip / rskip / no-fast-intra / no-tskip-fast / no-cu-lossless / b-intra / no-splitrd-skip / rdpenalty=0 / psy-rd=4.00 / psy-rdoq=8.00 / no-rd-refine / no-lossless / cbqpoffs=0 / crqpoffs=0 / rc=crf / crf=15.0 / qcomp=0.60 / qpstep=4 / stats-write=0 / stats-read=0 / ipratio=1.40 / pbratio=1.30 / aq-mode=2 / aq-strength=1.00 / cutree / zone-count=0 / no-strict-cbr / qg-size=32 / no-rc-grain / qpmax=69 / qpmin=0 / no-const-vbv / sar=0 / overscan=0 / videoformat=5 / range=0 / colorprim=9 / transfer=16 / colormatrix=9 / chromaloc=0 / display-window=0 / cll=0,0 / min-luma=0 / max-luma=1023 / log2-max-poc-lsb=8 / vui-timing-info / vui-hrd-info / slices=1 / no-opt-qp-pps / no-opt-ref-list-length-pps / no-multi-pass-opt-rps / scenecut-bias=0.05 / no-opt-cu-delta-qp / no-aq-motion / hdr / hdr-opt / no-dhdr10-opt / no-idr-recovery-sei / analysis-reuse-level=5 / scale-factor=0 / refine-intra=0 / refine-inter=0 / refine-mv=1 / refine-ctu-distortion=0 / no-limit-sao / ctu-info=0 / no-lowpass-dct / refine-analysis-type=0 / copy-pic=1 / max-ausize-factor=1.0 / no-dynamic-refine / no-single-sei / no-hevc-aq / no-svt / no-field / qp-adaptation-range=1.00
  21. Default : Yes
  22. Forced : No
  23. Color range : Limited
  24. Color primaries : BT.2020
  25. Transfer characteristics : PQ
  26. Matrix coefficients : BT.2020 non-constant

  27. Audio
  28. ID : 2
  29. Format : E-AC-3
  30. Format/Info : Enhanced AC-3
  31. Commercial name : Dolby Digital Plus
  32. Codec ID : A_EAC3
  33. Duration : 21 min 51 s
  34. Bit rate mode : Constant
  35. Bit rate : 256 kb/s
  36. Channel(s) : 6 channels
  37. Channel layout : L R C LFE Ls Rs
  38. Sampling rate : 48.0 kHz
  39. Frame rate : 31.250 FPS (1536 SPF)
  40. Compression mode : Lossy
  41. Stream size : 40.0 MiB (2%)
  42. Language : English
  43. Service kind : Complete Main
  44. Default : Yes
  45. Forced : No
复制代码

雪宝的佳节冒险 / 冰雪奇缘番外短片/雪宝的冰雪大冒险4k Olafs.Frozen.Adventure.2017.2160p.DSNP.WEBRip.x265.10bit.HDR.DDP5.1电影下载
雪宝的冰雪大冒险4k Olafs.Frozen.Adventure.2017.2160p.DSNP.WEBRip.x265.10bit.HDR.DDP5.1【1.71 GB】
雪宝的冰雪大冒险4k Olafs.Frozen.Adventure.2017.2160p.DSNP.WEBRip.x265.10bit.HDR..torrent (17.7 KB, 售价: 10 金币)
热门电影
关闭

站长通知上一条 /1 下一条

Copyright   ©2015-2016  4k群  Powered by©Discuz!  技术支持:4K群