少女地球守护者4k IO.2019.2160p-4k电影

[复制链接]
朱古力小酥酥 发表于 2020-10-17 17:50 | 显示全部楼层 |阅读模式
电影频道
电影封面:
片  名: 少女地球守护者4k
国  家: 美国   
电影分类: 科幻   
分 辨 率: 4K(3840x2160)    
画质标准: 其他 
电影声道: 5.1声道   
资源大小: 16.49 GB
剧情简介: 少女科学家珊曼莎是地球经历末世浩劫后的幸存者之一。她并未随着他人弃守家园,反而留在地球,并致力寻找让人类生存下去的方法。
  在最后一艘宇宙飞船开往遥远人类太空殖民地之际,她留守的决心因为另一位幸存者麦卡的到来而动摇。她必须决定要与麦卡一起出发到人类避难之所开展新生活,还是继续留下来保卫地球。
少女救地球/少女地球守护者4k IO.2019.2160p.NF.WEBRip.DDP5.1.x264电影信息
  1. Video
  2. ID : 1
  3. Format : AVC
  4. Format/Info : Advanced Video Codec
  5. Format profile : High@L5.1
  6. Format settings : CABAC / 7 Ref Frames
  7. Format settings, CABAC : Yes
  8. Format settings, Reference frames : 7 frames
  9. Codec ID : V_MPEG4/ISO/AVC
  10. Duration : 1 h 35 min
  11. Bit rate : 23.6 Mb/s
  12. Width : 3 840 pixels
  13. Height : 1 600 pixels
  14. Display aspect ratio : 2.40:1
  15. Frame rate mode : Constant
  16. Frame rate : 24.000 FPS
  17. Color space : YUV
  18. Chroma subsampling : 4:2:0
  19. Bit depth : 8 bits
  20. Scan type : Progressive
  21. Bits/(Pixel*Frame) : 0.160
  22. Stream size : 15.7 GiB (95%)
  23. Writing library : x264 core 157 r2935+3 (master: 545de2f / tmod: 0f48dd4) [X86_64]
  24. Encoding settings : cabac=1 / ref=7 / deblock=1:-3:-3 / analyse=0x3:0x133 / me=umh / subme=11 / psy=1 / psy_rd=1.05:0.15 / mixed_ref=1 / me_range=48 / chroma_me=1 / trellis=2 / 8x8dct=1 / cqm=0 / deadzone=6,6 / fast_pskip=0 / chroma_qp_offset=-3 / threads=50 / lookahead_threads=12 / sliced_threads=0 / nr=0 / decimate=0 / interlaced=0 / bluray_compat=0 / constrained_intra=0 / bframes=10 / b_pyramid=2 / b_adapt=2 / b_bias=0 / direct=3 / weightb=1 / open_gop=0 / weightp=2 / keyint=250 / keyint_min=24 / scenecut=40 / intra_refresh=0 / rc_lookahead=60 / rc=crf / mbtree=0 / crf=21.6 / qcomp=0.70 / qpmin=0 / qpmax=69 / qpstep=4 / vbv_maxrate=300000 / vbv_bufsize=300000 / crf_max=0.0 / nal_hrd=none / filler=0 / ip_ratio=1.25 / pb_ratio=1.20 / aq=3:0.70
  25. Language : English
  26. Default : Yes
  27. Forced : No

  28. Audio
  29. ID : 2
  30. Format : E-AC-3
  31. Format/Info : Enhanced AC-3
  32. Commercial name : Dolby Digital Plus
  33. Codec ID : A_EAC3
  34. Duration : 1 h 35 min
  35. Bit rate mode : Constant
  36. Bit rate : 640 kb/s
  37. Channel(s) : 6 channels
  38. Channel layout : L R C LFE Ls Rs
  39. Sampling rate : 48.0 kHz
  40. Frame rate : 31.250 FPS (1536 SPF)
  41. Compression mode : Lossy
  42. Stream size : 438 MiB (3%)
  43. Language : English
  44. Service kind : Complete Main
  45. Default : Yes
  46. Forced : No
复制代码

少女救地球/少女地球守护者4k IO.2019.2160p.NF.WEBRip.DDP5.1.x264电影信下载

少女地球守护者4k IO.2019.2160p.NF.WEBRip.DDP5.1.x264【16.49 GB】

少女地球守护者4k IO.2019.2160p.NF.WEBRip.DDP5.1.x264-DEFLATE.torrent (82.98 KB, 售价: 10 金币)
热门电影
关闭

站长通知上一条 /1 下一条

Copyright   ©2015-2016  4k群  Powered by©Discuz!  技术支持:4K群