攻击链4k Kill.Chain.2019.2160p-4k电影下载

[复制链接]
朱古力小酥酥 发表于 2020-10-17 17:58 | 显示全部楼层 |阅读模式
电影频道
电影封面:
片  名: 攻击链4k
国  家: 美国   
电影分类: 动作   
分 辨 率: 4K(3840x2160)    
画质标准: 其他 
电影声道: 5.1声道   
资源大小: 31.62 GB
剧情简介: 尼古拉斯·凯奇或将出演全新影片[攻击链](Kill Chain,暂译),该片由肯·桑泽尔([替身杀手])自编自导。故事讲述三个陌生人,他们彼此将陷入前所未有的冲突中。该片在戛纳电影节上被形容为最棒的黑色侦探影片。千禧年影业负责制作。
攻击链4k Kill.Chain.2019.2160p.AMZN.WEBRip.DDP5.1.x264电影信息
  1. Video
  2. ID : 1
  3. Format : AVC
  4. Format/Info : Advanced Video Codec
  5. Format profile : High@L5.1
  6. Format settings : CABAC / 5 Ref Frames
  7. Format settings, CABAC : Yes
  8. Format settings, Reference frames : 5 frames
  9. Codec ID : V_MPEG4/ISO/AVC
  10. Duration : 1 h 31 min
  11. Bit rate : 48.9 Mb/s
  12. Width : 3 840 pixels
  13. Height : 2 080 pixels
  14. Display aspect ratio : 1.85:1
  15. Frame rate mode : Constant
  16. Frame rate : 23.976 (24000/1001) FPS
  17. Color space : YUV
  18. Chroma subsampling : 4:2:0
  19. Bit depth : 8 bits
  20. Scan type : Progressive
  21. Bits/(Pixel*Frame) : 0.256
  22. Stream size : 31.2 GiB (99%)
  23. Writing library : x264 core 158 r2984 3759fcb
  24. Encoding settings : cabac=1 / ref=5 / deblock=1:-3:-3 / analyse=0x3:0x133 / me=umh / subme=10 / psy=1 / psy_rd=1.00:0.00 / mixed_ref=1 / me_range=48 / chroma_me=1 / trellis=2 / 8x8dct=1 / cqm=0 / deadzone=21,11 / fast_pskip=0 / chroma_qp_offset=-2 / threads=24 / lookahead_threads=4 / sliced_threads=0 / nr=0 / decimate=0 / interlaced=0 / bluray_compat=0 / constrained_intra=0 / bframes=8 / b_pyramid=2 / b_adapt=2 / b_bias=0 / direct=3 / weightb=1 / open_gop=0 / weightp=2 / keyint=250 / keyint_min=23 / scenecut=40 / intra_refresh=0 / rc=crf / mbtree=0 / crf=17.0 / qcomp=0.60 / qpmin=0 / qpmax=69 / qpstep=4 / ip_ratio=1.30 / pb_ratio=1.20 / aq=3:0.80
  25. Default : Yes
  26. Forced : No

  27. Audio
  28. ID : 2
  29. Format : E-AC-3
  30. Format/Info : Enhanced AC-3
  31. Commercial name : Dolby Digital Plus
  32. Codec ID : A_EAC3
  33. Duration : 1 h 31 min
  34. Bit rate mode : Constant
  35. Bit rate : 640 kb/s
  36. Channel(s) : 6 channels
  37. Channel layout : L R C LFE Ls Rs
  38. Sampling rate : 48.0 kHz
  39. Frame rate : 31.250 FPS (1536 SPF)
  40. Compression mode : Lossy
  41. Stream size : 418 MiB (1%)
  42. Language : English
  43. Service kind : Complete Main
  44. Default : Yes
  45. Forced : No

  46. Text #1
  47. ID : 3
  48. Format : UTF-8
  49. Codec ID : S_TEXT/UTF8
  50. Codec ID/Info : UTF-8 Plain Text
  51. Duration : 1 h 22 min
  52. Bit rate : 43 b/s
  53. Count of elements : 899
  54. Stream size : 26.3 KiB (0%)
  55. Language : English
  56. Default : No
  57. Forced : No

  58. Text #2
  59. ID : 4
  60. Format : UTF-8
  61. Codec ID : S_TEXT/UTF8
  62. Codec ID/Info : UTF-8 Plain Text
  63. Duration : 1 h 26 min
  64. Bit rate : 43 b/s
  65. Count of elements : 983
  66. Stream size : 27.4 KiB (0%)
  67. Title : SDH
  68. Language : English
  69. Default : No
  70. Forced : No

  71. Menu
  72. 00:00:00.000 : en:Studio Logo
  73. 00:00:38.000 : en:Unexpected visitors come to the hotel
  74. 00:06:02.000 : en:Opening Credits
  75. 00:07:47.000 : en:Another day at the office
  76. 00:11:13.000 : en:A suspicious sniper
  77. 00:20:28.000 : en:A change in the plan
  78. 00:27:40.000 : en:Playing mind games
  79. 00:36:46.000 : en:A desperate plan for escape
  80. 00:42:06.000 : en:Time to steal a ride
  81. 00:45:44.000 : en:Checking in at the Hotel Franco
  82. 00:52:09.000 : en:Tough negotiations
  83. 00:59:59.000 : en:Choosing a side
  84. 01:06:36.000 : en:Time for a story
  85. 01:16:00.000 : en:The hotel becomes a war zone
  86. 01:22:42.000 : en:Tying up loose ends
  87. 01:27:46.000 : en:End Credits
复制代码

攻击链4k Kill.Chain.2019.2160p.AMZN.WEBRip.DDP5.1.x264电影下载
攻击链4k Kill.Chain.2019.2160p.AMZN.WEBRip.DDP5.1.x264【31.62 GB】
攻击链4k Kill.Chain.2019.2160p.AMZN.WEBRip.DDP5.1.x264-AJP69.torrent (79.59 KB, 售价: 10 金币)
热门电影
关闭

站长通知上一条 /1 下一条

Copyright   ©2015-2016  4k群  Powered by©Discuz!  技术支持:4K群