血书4K.Books.of.Blood.2020.2160p-4k电影下载

[复制链接]
朱古力小酥酥 发表于 2020-11-5 22:28 | 显示全部楼层 |阅读模式
电影频道
电影封面:
片  名: 血书4K
国  家: 美国   
电影分类: 科幻   恐怖   剧情   悬疑   
分 辨 率: 4K(3840x2160)    
画质标准: 其他 
电影声道: 5.1声道   
资源大小: 10.87 GB
剧情简介: 改编自作家克莱夫·巴克同名小说,穿越时空纠结的三个故事进入未知和禁地的旅程。
血书4K.Books.of.Blood.2020.2160p.HULU.WEBRip.x265.10bit.SDR.DDP5.1-4k电影信息
  1. Video
  2. ID : 1
  3. Format : HEVC
  4. Format/Info : High Efficiency Video Coding
  5. Format profile : Main 10@L5.1@Main
  6. Codec ID : V_MPEGH/ISO/HEVC
  7. Duration : 1 h 47 min
  8. Bit rate : 14.2 Mb/s
  9. Width : 3 840 pixels
  10. Height : 2 160 pixels
  11. Display aspect ratio : 16:9
  12. Frame rate mode : Constant
  13. Frame rate : 23.976 (24000/1001) FPS
  14. Color space : YUV
  15. Chroma subsampling : 4:2:0
  16. Bit depth : 10 bits
  17. Bits/(Pixel*Frame) : 0.072
  18. Stream size : 10.7 GiB (98%)
  19. Default : Yes
  20. Forced : No

  21. Audio
  22. ID : 2
  23. Format : E-AC-3
  24. Format/Info : Enhanced AC-3
  25. Commercial name : Dolby Digital Plus
  26. Codec ID : A_EAC3
  27. Duration : 1 h 47 min
  28. Bit rate mode : Constant
  29. Bit rate : 256 kb/s
  30. Channel(s) : 6 channels
  31. Channel layout : L R C LFE Ls Rs
  32. Sampling rate : 48.0 kHz
  33. Frame rate : 31.250 FPS (1536 SPF)
  34. Compression mode : Lossy
  35. Stream size : 197 MiB (2%)
  36. Language : English
  37. Service kind : Complete Main
  38. Default : Yes
  39. Forced : No

  40. Text #1
  41. ID : 3
  42. Format : UTF-8
  43. Codec ID : S_TEXT/UTF8
  44. Codec ID/Info : UTF-8 Plain Text
  45. Duration : 1 h 46 min
  46. Bit rate : 53 b/s
  47. Count of elements : 1626
  48. Stream size : 42.1 KiB (0%)
  49. Title : SDH
  50. Language : English
  51. Default : No
  52. Forced : No

  53. Text #2
  54. ID : 4
  55. Format : UTF-8
  56. Codec ID : S_TEXT/UTF8
  57. Codec ID/Info : UTF-8 Plain Text
  58. Duration : 1 h 46 min
  59. Bit rate : 53 b/s
  60. Count of elements : 1595
  61. Stream size : 41.8 KiB (0%)
  62. Language : Spanish
  63. Default : No
  64. Forced : No

  65. Menu
  66. 01:44:57.011 : en:Credits
复制代码

血书4K.Books.of.Blood.2020.2160p.HULU.WEBRip.x265.10bit.SDR.DDP5.1-4K电影下载
血书4K.Books.of.Blood.2020.2160p.HULU.WEBRip.x265.10bit.SDR.DDP5.1【10.87 GB】
血书4K.Books.of.Blood.2020.2160p.HULU.WEBRip.x265.10bit.SDR.DDP5.1-NTG.torrent (54.9 KB, 售价: 10 金币)
热门电影
关闭

站长通知上一条 /1 下一条

Copyright   ©2015-2016  4k群  Powered by©Discuz!  技术支持:4K群