开造4K.The.Binge.2020.2160p-4k电影下载

[复制链接]
朱古力小酥酥 发表于 2020-11-5 22:32 | 显示全部楼层 |阅读模式
电影频道
电影封面:
片  名: 开造4K
国  家: 美国   
电影分类: 喜剧   
分 辨 率: 4K(3840x2160)    
画质标准: 其他 
电影声道: 5.1声道   
资源大小: 10.07 GB
剧情简介: 故事设定在酒精和毒品皆违法的时代,The Binge Day是所有人都能彻底放松的特赦日。
开造4K.The.Binge.2020.2160p.HULU.WEBRip.x265.10bit.SDR.DDP5.1-4k电影信息
  1. Video
  2. ID : 1
  3. Format : HEVC
  4. Format/Info : High Efficiency Video Coding
  5. Format profile : Main 10@L5.1@Main
  6. Codec ID : V_MPEGH/ISO/HEVC
  7. Duration : 1 h 38 min
  8. Bit rate : 14.4 Mb/s
  9. Width : 3 840 pixels
  10. Height : 2 160 pixels
  11. Display aspect ratio : 16:9
  12. Frame rate mode : Constant
  13. Frame rate : 24.000 FPS
  14. Color space : YUV
  15. Chroma subsampling : 4:2:0
  16. Bit depth : 10 bits
  17. Bits/(Pixel*Frame) : 0.073
  18. Stream size : 9.89 GiB (98%)
  19. Default : Yes
  20. Forced : No

  21. Audio
  22. ID : 2
  23. Format : E-AC-3
  24. Format/Info : Enhanced AC-3
  25. Commercial name : Dolby Digital Plus
  26. Codec ID : A_EAC3
  27. Duration : 1 h 38 min
  28. Bit rate mode : Constant
  29. Bit rate : 256 kb/s
  30. Channel(s) : 6 channels
  31. Channel layout : L R C LFE Ls Rs
  32. Sampling rate : 48.0 kHz
  33. Frame rate : 31.250 FPS (1536 SPF)
  34. Compression mode : Lossy
  35. Stream size : 179 MiB (2%)
  36. Language : English
  37. Service kind : Complete Main
  38. Default : Yes
  39. Forced : No

  40. Text #1
  41. ID : 3
  42. Format : UTF-8
  43. Codec ID : S_TEXT/UTF8
  44. Codec ID/Info : UTF-8 Plain Text
  45. Duration : 1 h 37 min
  46. Bit rate : 134 b/s
  47. Count of elements : 2543
  48. Stream size : 96.3 KiB (0%)
  49. Language : English
  50. Default : No
  51. Forced : No

  52. Text #2
  53. ID : 4
  54. Format : UTF-8
  55. Codec ID : S_TEXT/UTF8
  56. Codec ID/Info : UTF-8 Plain Text
  57. Duration : 1 h 37 min
  58. Bit rate : 134 b/s
  59. Count of elements : 2515
  60. Stream size : 96.2 KiB (0%)
  61. Language : Spanish
  62. Default : No
  63. Forced : No
复制代码

开造4K.The.Binge.2020.2160p.HULU.WEBRip.x265.10bit.SDR.DDP5.1-4K电影下载
开造4K.The.Binge.2020.2160p.HULU.WEBRip.x265.10bit.SDR.DDP5.1【10.07 GB】
开造4K.The.Binge.2020.2160p.HULU.WEBRip.x265.10bit.SDR.DDP5.1-playWEB.torrent (50.88 KB, 售价: 10 金币)
热门电影
关闭

站长通知上一条 /1 下一条

Copyright   ©2015-2016  4k群  Powered by©Discuz!  技术支持:4K群