精疲力尽4k Breathless.1960.FRENCH-4k电影下载

[复制链接]
朱古力小酥酥 发表于 2020-11-10 21:30 | 显示全部楼层 |阅读模式
电影频道
电影封面:
片  名: 精疲力尽4k
国  家: 美国   
电影分类: 犯罪   
分 辨 率: 4K(3840x2160)    
画质标准: HDR    
电影声道: 2.0声道   
资源大小: 19.24 GB
剧情简介: 本片和特吕弗的《四百击》同被誉为法国电影新浪潮的开山之作。
  身无分文的街头混混米歇尔(让-保罗•贝尔蒙多)从马赛偷了一辆小汽车,驶往巴黎的路上,他因超速行驶被警察逮住,为了脱身,他开枪打死一名警察,来到巴黎后,他躲进当记者的女友帕特丽夏(Jean Seberg)处(躲避警方的通缉之外,他还想方设法讨回一笔卖车赚来的钱)。帕特丽夏去报社时,遇到警长,对方要她一有米歇尔的消息就打电话相告。对米歇尔,帕特丽夏心态复杂,一面深深为他对一切都无所谓的劲儿着迷,一面却嫌弃他太吊儿郎当。
断了气(港/台) / 欲海惊魂(港) / 筋疲力尽 / 精疲力竭 / 穷途末路 / Breathless/精疲力尽4k Breathless.1960.FRENCH.2160p.UHD.BluRay.X265.10bit.HDR.FLAC.2.0-4k电影信息
  1. Video
  2. ID : 1
  3. Format : HEVC
  4. Format/Info : High Efficiency Video Coding
  5. Format profile : Main 10@L5.1@High
  6. HDR format : SMPTE ST 2086, HDR10 compatible
  7. Codec ID : V_MPEGH/ISO/HEVC
  8. Duration : 1 h 30 min
  9. Bit rate : 29.4 Mb/s
  10. Width : 2 960 pixels
  11. Height : 2 160 pixels
  12. Display aspect ratio : 1.370
  13. Frame rate mode : Constant
  14. Frame rate : 24.000 FPS
  15. Color space : YUV
  16. Chroma subsampling : 4:2:0 (Type 2)
  17. Bit depth : 10 bits
  18. Bits/(Pixel*Frame) : 0.192
  19. Stream size : 18.5 GiB (98%)
  20. Writing library : x265 3.4+26-ga82c6c7a7:[Windows][MSVC 1900][64 bit] 10bit
  21. Encoding settings : cpuid=1111039 / frame-threads=6 / numa-pools=32,32 / wpp / no-pmode / no-pme / no-psnr / no-ssim / log-level=2 / input-csp=1 / input-res=2960x2160 / interlace=0 / total-frames=129978 / level-idc=51 / high-tier=1 / uhd-bd=0 / ref=4 / no-allow-non-conformance / repeat-headers / annexb / aud / hrd / info / hash=0 / no-temporal-layers / no-open-gop / min-keyint=24 / keyint=250 / gop-lookahead=0 / bframes=4 / b-adapt=2 / b-pyramid / bframe-bias=0 / rc-lookahead=25 / lookahead-slices=4 / scenecut=40 / hist-scenecut=0 / radl=0 / no-splice / no-intra-refresh / ctu=64 / min-cu-size=8 / rect / no-amp / max-tu-size=32 / tu-inter-depth=1 / tu-intra-depth=1 / limit-tu=0 / rdoq-level=2 / dynamic-rd=0.00 / no-ssim-rd / signhide / no-tskip / nr-intra=0 / nr-inter=0 / no-constrained-intra / no-strong-intra-smoothing / max-merge=3 / limit-refs=3 / limit-modes / me=3 / subme=3 / merange=57 / temporal-mvp / no-frame-dup / no-hme / weightp / no-weightb / no-analyze-src-pics / deblock=-3:-3 / no-sao / no-sao-non-deblock / rd=4 / selective-sao=0 / no-early-skip / rskip / no-fast-intra / no-tskip-fast / no-cu-lossless / no-b-intra / no-splitrd-skip / rdpenalty=0 / psy-rd=2.00 / psy-rdoq=1.00 / no-rd-refine / no-lossless / cbqpoffs=0 / crqpoffs=0 / rc=crf / crf=21.2 / qcomp=0.60 / qpstep=4 / stats-write=0 / stats-read=0 / vbv-maxrate=160000 / vbv-bufsize=160000 / vbv-init=0.9 / min-vbv-fullness=50.0 / max-vbv-fullness=80.0 / crf-max=0.0 / crf-min=0.0 / ipratio=1.40 / pbratio=1.30 / aq-mode=2 / aq-strength=1.00 / cutree / zone-count=0 / no-strict-cbr / qg-size=32 / no-rc-grain / qpmax=69 / qpmin=0 / no-const-vbv / sar=1 / overscan=0 / videoformat=5 / range=0 / colorprim=9 / transfer=16 / colormatrix=9 / chromaloc=1 / chromaloc-top=2 / chromaloc-bottom=2 / display-window=0 / master-display=G(13250,34500)B(7500,3000)R(34000,16000)WP(15635,16450)L(10000000,01) / cll=1000,141 / min-luma=0 / max-luma=1023 / log2-max-poc-lsb=8 / vui-timing-info / vui-hrd-info / slices=1 / no-opt-qp-pps / no-opt-ref-list-length-pps / no-multi-pass-opt-rps / scenecut-bias=0.05 / hist-threshold=0.03 / no-opt-cu-delta-qp / no-aq-motion / hdr10 / hdr10-opt / no-dhdr10-opt / no-idr-recovery-sei / analysis-reuse-level=0 / analysis-save-reuse-level=0 / analysis-load-reuse-level=0 / scale-factor=0 / refine-intra=0 / refine-inter=0 / refine-mv=1 / refine-ctu-distortion=0 / no-limit-sao / ctu-info=0 / no-lowpass-dct / refine-analysis-type=0 / copy-pic=1 / max-ausize-factor=1.0 / no-dynamic-refine / no-single-sei / no-hevc-aq / no-svt / no-field / qp-adaptation-range=1.00 / no-scenecut-aware-qpconformance-window-offsets / right=0 / bottom=0 / decoder-max-rate=0 / no-vbv-live-multi-pass
  22. Default : Yes
  23. Forced : No
  24. Color range : Limited
  25. Color primaries : BT.2020
  26. Transfer characteristics : PQ
  27. Matrix coefficients : BT.2020 non-constant
  28. Mastering display color primaries : Display P3
  29. Mastering display luminance : min: 0.0001 cd/m2, max: 1000 cd/m2
  30. Maximum Content Light Level : 1000 cd/m2
  31. Maximum Frame-Average Light Level : 141 cd/m2

  32. Audio
  33. ID : 2
  34. Format : FLAC
  35. Format/Info : Free Lossless Audio Codec
  36. Codec ID : A_FLAC
  37. Duration : 1 h 30 min
  38. Bit rate mode : Variable
  39. Bit rate : 596 kb/s
  40. Channel(s) : 2 channels
  41. Channel layout : L R
  42. Sampling rate : 48.0 kHz
  43. Frame rate : 11.719 FPS (4096 SPF)
  44. Bit depth : 24 bits
  45. Compression mode : Lossless
  46. Stream size : 385 MiB (2%)
  47. Writing library : libFLAC 1.3.2 (UTC 2017-01-01)
  48. Language : French
  49. Default : Yes
  50. Forced : No

  51. Text #1
  52. ID : 3
  53. Format : UTF-8
  54. Codec ID : S_TEXT/UTF8
  55. Codec ID/Info : UTF-8 Plain Text
  56. Duration : 1 h 29 min
  57. Bit rate : 42 b/s
  58. Count of elements : 762
  59. Stream size : 28.0 KiB (0%)
  60. Language : English
  61. Default : Yes
  62. Forced : No

  63. Text #2
  64. ID : 4
  65. Format : PGS
  66. Muxing mode : zlib
  67. Codec ID : S_HDMV/PGS
  68. Codec ID/Info : Picture based subtitle format used on BDs/HD-DVDs
  69. Duration : 1 h 29 min
  70. Bit rate : 25.2 kb/s
  71. Count of elements : 1526
  72. Stream size : 16.2 MiB (0%)
  73. Language : English
  74. Default : No
  75. Forced : No

  76. Text #3
  77. ID : 5
  78. Format : PGS
  79. Muxing mode : zlib
  80. Codec ID : S_HDMV/PGS
  81. Codec ID/Info : Picture based subtitle format used on BDs/HD-DVDs
  82. Duration : 1 h 30 min
  83. Bit rate : 33.0 kb/s
  84. Count of elements : 1998
  85. Stream size : 21.3 MiB (0%)
  86. Language : German
  87. Default : No
  88. Forced : No

  89. Text #4
  90. ID : 6
  91. Format : PGS
  92. Muxing mode : zlib
  93. Codec ID : S_HDMV/PGS
  94. Codec ID/Info : Picture based subtitle format used on BDs/HD-DVDs
  95. Duration : 1 h 30 min
  96. Bit rate : 31.0 kb/s
  97. Count of elements : 2704
  98. Stream size : 20.0 MiB (0%)
  99. Language : French
  100. Default : No
  101. Forced : No

  102. Menu
  103. 00:00:00.000 : en:Chapter 01
  104. 00:05:57.291 : en:Chapter 02
  105. 00:10:03.291 : en:Chapter 03
  106. 00:18:14.291 : en:Chapter 04
  107. 00:26:27.291 : en:Chapter 05
  108. 00:37:12.291 : en:Chapter 06
  109. 00:52:52.291 : en:Chapter 07
  110. 01:00:15.291 : en:Chapter 08
  111. 01:05:05.291 : en:Chapter 09
  112. 01:12:08.291 : en:Chapter 10
  113. 01:18:50.708 : en:Chapter 11
  114. 01:23:01.708 : en:Chapter 12
复制代码

断了气(港/台) / 欲海惊魂(港) / 筋疲力尽 / 精疲力竭 / 穷途末路 / Breathless/精疲力尽4k Breathless.1960.FRENCH.2160p.UHD.BluRay.X265.10bit.HDR.FLAC.2.0-4k电影下载

精疲力尽4k Breathless.1960.FRENCH.2160p.UHD.BluRay.X265.10bit.HDR.FLAC.2.0【4K 2160p 19.24 GB】
精疲力尽4k Breathless.1960.FRENCH.2160p.UHD.BluRay.X265.10bit.HDR.FLAC.2..torrent (96.89 KB, 售价: 10 金币)
热门电影
关闭

站长通知上一条 /1 下一条

Copyright   ©2015-2016  4k群  Powered by©Discuz!  技术支持:4K群