疯狂原始人2 The.Croods.A.New.Age.2020.1080p.电影下载

[复制链接]
朱古力小酥酥 发表于 2020-12-24 11:44 | 显示全部楼层 |阅读模式
电影频道
电影封面:
片  名: 疯狂原始人2
国  家: 美国   
电影分类: 冒险   喜剧   动画   
分 辨 率: 4K(3840x2160)    
画质标准: 其他 
电影声道: 其他
资源大小: 5.62 GB
剧情简介:  经历了逃离洞穴、挺过末日危机之后的原始人咕噜家族,咕噜一家决定寻找新家园。中途盖(瑞恩·雷诺兹 Ryan Reynolds 配音)已成了咕噜一家中的一员,但让瓜哥(尼古拉斯·凯奇 Nicolas Cage 配音)头疼的是,盖跟女儿小伊(艾玛·斯通 Emma Stone 配音)每天你侬我侬,还妄想组成只属于两人的小家庭。就在咕噜一家人饥肠辘辘之际,他们发现了一片高墙内隐藏着食物丰饶的沃土,原来开辟这片世外桃源的文明人夫妇霍普和菲尔是已经去世的盖的父母的朋友。在最初的热情款待后,一心想要撮合盖和女儿晓晓的霍普和菲尔,发现咕噜一家成了绊脚石,为了把盖抢过来,他们用上了攻心计。两家人闹得不可开交,盖和小伊也产生了裂痕,却浑然不知危险正慢慢靠近……
古鲁家族2:霸器新時代(港) / 古鲁家族:新石代(台) / 疯狂原始人2:新纪元/疯狂原始人2 The.Croods.A.New.Age.2020.1080p.WEB.H264电影信息
  1. Video
  2. ID : 1
  3. Format : AVC
  4. Format/Info : Advanced Video Codec
  5. Format profile : High@L4
  6. Format settings : CABAC / 4 Ref Frames
  7. Format settings, CABAC : Yes
  8. Format settings, Reference frames : 4 frames
  9. Codec ID : V_MPEG4/ISO/AVC
  10. Duration : 1 h 35 min
  11. Bit rate mode : Constant
  12. Bit rate : 7 802 kb/s
  13. Nominal bit rate : 10 000 kb/s
  14. Width : 1 920 pixels
  15. Height : 816 pixels
  16. Display aspect ratio : 2.35:1
  17. Frame rate mode : Constant
  18. Frame rate : 23.976 (24000/1001) FPS
  19. Color space : YUV
  20. Chroma subsampling : 4:2:0
  21. Bit depth : 8 bits
  22. Scan type : Progressive
  23. Bits/(Pixel*Frame) : 0.208
  24. Stream size : 5.19 GiB (92%)
  25. Language : English
  26. Default : Yes
  27. Forced : No
  28. Color range : Limited
  29. Color primaries : BT.709
  30. Transfer characteristics : BT.709
  31. Matrix coefficients : BT.709

  32. Audio
  33. ID : 2
  34. Format : E-AC-3
  35. Format/Info : Enhanced AC-3
  36. Commercial name : Dolby Digital Plus
  37. Codec ID : A_EAC3
  38. Duration : 1 h 35 min
  39. Bit rate mode : Constant
  40. Bit rate : 640 kb/s
  41. Channel(s) : 6 channels
  42. Channel layout : L R C LFE Ls Rs
  43. Sampling rate : 48.0 kHz
  44. Frame rate : 31.250 FPS (1536 SPF)
  45. Compression mode : Lossy
  46. Stream size : 436 MiB (8%)
  47. Language : English
  48. Service kind : Complete Main
  49. Default : Yes
  50. Forced : No

  51. Text
  52. ID : 3
  53. Format : UTF-8
  54. Codec ID : S_TEXT/UTF8
  55. Codec ID/Info : UTF-8 Plain Text
  56. Duration : 1 h 35 min
  57. Bit rate : 87 b/s
  58. Count of elements : 2402
  59. Stream size : 61.2 KiB (0%)
  60. Title : English
  61. Language : English
  62. Default : No
  63. Forced : No
复制代码

古鲁家族2:霸器新時代(港) / 古鲁家族:新石代(台) / 疯狂原始人2:新纪元/疯狂原始人2 The.Croods.A.New.Age.2020.1080p.WEB.H264电影下载

疯狂原始人2 The.Croods.A.New.Age.2020.1080p.WEB.H264【5.62 GB】
疯狂原始人2 The.Croods.A.New.Age.2020.1080p.WEB.H264-STRONTiUM.torrent (28.81 KB, 售价: 10 金币)
热门电影
关闭

站长通知上一条 /1 下一条

Copyright   ©2015-2016  4k群  Powered by©Discuz!  技术支持:4K群