云上情歌4k Clouds.2020.HDR.2160p.电影下载

[复制链接]
朱古力小酥酥 发表于 2020-12-24 15:57 | 显示全部楼层 |阅读模式
电影频道
电影封面:
片  名: 云上情歌4k
国  家: 美国   
电影分类: 剧情   其他   
分 辨 率: 4K(3840x2160)    
画质标准: HDR    
电影声道: 其他
资源大小: 19.35 GB
剧情简介: 基于真实故事,美国男孩扎克·索比赫14岁被诊断患有骨肉瘤(18岁去世),多次手术和化疗并未遏制癌症发展,在得知自己只剩几个月寿命后,他创作了《云》这首歌,感谢自己身边的人和所经历的一切,乐观面对。
云云众生/云上情歌4k Clouds.2020.HDR.2160p.WEB.h265.电影信息
  1. Video
  2. ID : 1
  3. Format : HEVC
  4. Format/Info : High Efficiency Video Coding
  5. Format profile : Main 10@L5@Main
  6. Codec ID : V_MPEGH/ISO/HEVC
  7. Duration : 2 h 0 min
  8. Bit rate : 22.4 Mb/s
  9. Width : 3 840 pixels
  10. Height : 2 160 pixels
  11. Display aspect ratio : 16:9
  12. Frame rate mode : Constant
  13. Frame rate : 23.976 (24000/1001) FPS
  14. Color space : YUV
  15. Chroma subsampling : 4:2:0
  16. Bit depth : 10 bits
  17. Bits/(Pixel*Frame) : 0.113
  18. Stream size : 19.0 GiB (99%)
  19. Writing library : x265 3.4:[Linux][GCC 7.5.0][64 bit] 10bit
  20. Encoding settings : cpuid=1111039 / frame-threads=1 / wpp / no-pmode / no-pme / no-psnr / no-ssim / log-level=2 / input-csp=1 / input-res=3840x2160 / interlace=0 / total-frames=0 / level-idc=50 / high-tier=0 / uhd-bd=0 / ref=3 / no-allow-non-conformance / repeat-headers / annexb / no-aud / no-hrd / info / hash=0 / no-temporal-layers / no-open-gop / min-keyint=48 / keyint=48 / gop-lookahead=0 / bframes=2 / b-adapt=0 / b-pyramid / bframe-bias=0 / rc-lookahead=48 / lookahead-slices=8 / scenecut=0 / hist-scenecut=0 / radl=0 / no-splice / no-intra-refresh / ctu=32 / min-cu-size=8 / no-rect / no-amp / max-tu-size=16 / tu-inter-depth=2 / tu-intra-depth=2 / limit-tu=0 / rdoq-level=1 / dynamic-rd=0.00 / no-ssim-rd / signhide / no-tskip / nr-intra=0 / nr-inter=0 / no-constrained-intra / no-strong-intra-smoothing / max-merge=3 / limit-refs=1 / no-limit-modes / me=1 / subme=2 / merange=44 / temporal-mvp / no-frame-dup / no-hme / weightp / no-weightb / no-analyze-src-pics / deblock=0:0 / no-sao / no-sao-non-deblock / rd=4 / selective-sao=0 / early-skip / rskip / no-fast-intra / no-tskip-fast / no-cu-lossless / b-intra / no-splitrd-skip / rdpenalty=1 / psy-rd=1.60 / psy-rdoq=5.00 / no-rd-refine / no-lossless / cbqpoffs=0 / crqpoffs=0 / rc=abr / bitrate=23000 / qcomp=0.75 / qpstep=4 / stats-write=0 / stats-read=0 / vbv-maxrate=25000 / vbv-bufsize=25000 / vbv-init=0.9 / ipratio=1.40 / pbratio=1.30 / aq-mode=3 / aq-strength=1.00 / no-cutree / zone-count=0 / no-strict-cbr / qg-size=32 / no-rc-grain / qpmax=69 / qpmin=0 / no-const-vbv / sar=1 / overscan=0 / videoformat=5 / range=0 / colorprim=9 / transfer=16 / colormatrix=9 / chromaloc=0 / display-window=0 / cll=0,0 / min-luma=0 / max-luma=1023 / log2-max-poc-lsb=8 / vui-timing-info / vui-hrd-info / slices=1 / no-opt-qp-pps / no-opt-ref-list-length-pps / no-multi-pass-opt-rps / scenecut-bias=0.00 / hist-threshold=0.01 / no-opt-cu-delta-qp / no-aq-motion / no-hdr10 / hdr10-opt / no-dhdr10-opt / no-idr-recovery-sei / analysis-reuse-level=0 / analysis-save-reuse-level=0 / analysis-load-reuse-level=0 / scale-factor=0 / refine-intra=0 / refine-inter=0 / refine-mv=1 / refine-ctu-distortion=0 / no-limit-sao / ctu-info=0 / no-lowpass-dct / refine-analysis-type=0 / copy-pic=1 / max-ausize-factor=1.0 / no-dynamic-refine / no-single-sei / no-hevc-aq / no-svt / no-field / qp-adaptation-range=1.00 / no-scenecut-aware-qpconformance-window-offsets / right=0 / bottom=0
  21. Language : English
  22. Default : Yes
  23. Forced : No
  24. Color range : Limited
  25. Color primaries : BT.2020
  26. Transfer characteristics : PQ
  27. Matrix coefficients : BT.2020 non-constant

  28. Audio
  29. ID : 2
  30. Format : E-AC-3 JOC
  31. Format/Info : Enhanced AC-3 with Joint Object Coding
  32. Commercial name : Dolby Digital Plus with Dolby Atmos
  33. Codec ID : A_EAC3
  34. Duration : 2 h 1 min
  35. Bit rate mode : Constant
  36. Bit rate : 768 kb/s
  37. Channel(s) : 6 channels
  38. Channel layout : L R C LFE Ls Rs
  39. Sampling rate : 48.0 kHz
  40. Frame rate : 31.250 FPS (1536 SPF)
  41. Compression mode : Lossy
  42. Stream size : 222 MiB (1%)
  43. Language : English
  44. Service kind : Complete Main
  45. Default : Yes
  46. Forced : No
  47. Complexity index : 16
  48. Number of dynamic objects : 15
  49. Bed channel count : 1 channel
  50. Bed channel configuration : LFE

  51. Text #1
  52. ID : 3
  53. Format : UTF-8
  54. Codec ID : S_TEXT/UTF8
  55. Codec ID/Info : UTF-8 Plain Text
  56. Duration : 1 h 58 min
  57. Bit rate : 70 b/s
  58. Count of elements : 1684
  59. Stream size : 61.1 KiB (0%)
  60. Title : English (SDH)
  61. Language : English
  62. Default : No
  63. Forced : No

  64. Text #2
  65. ID : 4
  66. Format : UTF-8
  67. Codec ID : S_TEXT/UTF8
  68. Codec ID/Info : UTF-8 Plain Text
  69. Duration : 2 h 0 min
  70. Bit rate : 59 b/s
  71. Count of elements : 1439
  72. Stream size : 52.9 KiB (0%)
  73. Title : Dansk
  74. Language : Danish
  75. Default : No
  76. Forced : No

  77. Text #3
  78. ID : 5
  79. Format : UTF-8
  80. Codec ID : S_TEXT/UTF8
  81. Codec ID/Info : UTF-8 Plain Text
  82. Duration : 2 h 0 min
  83. Bit rate : 55 b/s
  84. Count of elements : 1432
  85. Stream size : 49.4 KiB (0%)
  86. Title : Deutsch
  87. Language : German
  88. Default : No
  89. Forced : No

  90. Text #4
  91. ID : 6
  92. Format : UTF-8
  93. Codec ID : S_TEXT/UTF8
  94. Codec ID/Info : UTF-8 Plain Text
  95. Duration : 2 h 0 min
  96. Bit rate : 55 b/s
  97. Count of elements : 1381
  98. Stream size : 48.7 KiB (0%)
  99. Title : Español
  100. Language : Spanish
  101. Default : No
  102. Forced : No

  103. Text #5
  104. ID : 7
  105. Format : UTF-8
  106. Codec ID : S_TEXT/UTF8
  107. Codec ID/Info : UTF-8 Plain Text
  108. Duration : 2 h 0 min
  109. Bit rate : 53 b/s
  110. Count of elements : 1341
  111. Stream size : 46.9 KiB (0%)
  112. Title : Español (Latinoamericano)
  113. Language : Spanish
  114. Default : No
  115. Forced : No

  116. Text #6
  117. ID : 8
  118. Format : UTF-8
  119. Codec ID : S_TEXT/UTF8
  120. Codec ID/Info : UTF-8 Plain Text
  121. Duration : 2 h 0 min
  122. Bit rate : 54 b/s
  123. Count of elements : 1436
  124. Stream size : 48.3 KiB (0%)
  125. Title : Suomi
  126. Language : Finnish
  127. Default : No
  128. Forced : No

  129. Text #7
  130. ID : 9
  131. Format : UTF-8
  132. Codec ID : S_TEXT/UTF8
  133. Codec ID/Info : UTF-8 Plain Text
  134. Duration : 2 h 0 min
  135. Bit rate : 52 b/s
  136. Count of elements : 1430
  137. Stream size : 46.7 KiB (0%)
  138. Title : Français
  139. Language : French
  140. Default : No
  141. Forced : No

  142. Text #8
  143. ID : 10
  144. Format : UTF-8
  145. Codec ID : S_TEXT/UTF8
  146. Codec ID/Info : UTF-8 Plain Text
  147. Duration : 1 h 58 min
  148. Bit rate : 57 b/s
  149. Count of elements : 1435
  150. Stream size : 50.0 KiB (0%)
  151. Title : Indonesian
  152. Language : Indonesian
  153. Default : No
  154. Forced : No

  155. Text #9
  156. ID : 11
  157. Format : UTF-8
  158. Codec ID : S_TEXT/UTF8
  159. Codec ID/Info : UTF-8 Plain Text
  160. Duration : 2 h 0 min
  161. Bit rate : 51 b/s
  162. Count of elements : 1375
  163. Stream size : 45.7 KiB (0%)
  164. Title : Italiano
  165. Language : Italian
  166. Default : No
  167. Forced : No

  168. Text #10
  169. ID : 12
  170. Format : UTF-8
  171. Codec ID : S_TEXT/UTF8
  172. Codec ID/Info : UTF-8 Plain Text
  173. Duration : 2 h 0 min
  174. Bit rate : 45 b/s
  175. Count of elements : 1223
  176. Stream size : 40.5 KiB (0%)
  177. Title : Nederlands
  178. Language : Dutch
  179. Default : No
  180. Forced : No

  181. Text #11
  182. ID : 13
  183. Format : UTF-8
  184. Codec ID : S_TEXT/UTF8
  185. Codec ID/Info : UTF-8 Plain Text
  186. Duration : 2 h 0 min
  187. Bit rate : 55 b/s
  188. Count of elements : 1436
  189. Stream size : 48.6 KiB (0%)
  190. Title : Norsk
  191. Language : Norwegian
  192. Default : No
  193. Forced : No

  194. Text #12
  195. ID : 14
  196. Format : UTF-8
  197. Codec ID : S_TEXT/UTF8
  198. Codec ID/Info : UTF-8 Plain Text
  199. Duration : 2 h 0 min
  200. Bit rate : 51 b/s
  201. Count of elements : 1438
  202. Stream size : 45.9 KiB (0%)
  203. Title : Polski
  204. Language : Polish
  205. Default : No
  206. Forced : No

  207. Text #13
  208. ID : 15
  209. Format : UTF-8
  210. Codec ID : S_TEXT/UTF8
  211. Codec ID/Info : UTF-8 Plain Text
  212. Duration : 2 h 0 min
  213. Bit rate : 53 b/s
  214. Count of elements : 1408
  215. Stream size : 47.5 KiB (0%)
  216. Title : Português
  217. Language : Portuguese
  218. Default : No
  219. Forced : No

  220. Text #14
  221. ID : 16
  222. Format : UTF-8
  223. Codec ID : S_TEXT/UTF8
  224. Codec ID/Info : UTF-8 Plain Text
  225. Duration : 2 h 0 min
  226. Bit rate : 53 b/s
  227. Count of elements : 1397
  228. Stream size : 47.2 KiB (0%)
  229. Title : Português (Brasil)
  230. Language : Portuguese
  231. Default : No
  232. Forced : No

  233. Text #15
  234. ID : 17
  235. Format : UTF-8
  236. Codec ID : S_TEXT/UTF8
  237. Codec ID/Info : UTF-8 Plain Text
  238. Duration : 2 h 0 min
  239. Bit rate : 58 b/s
  240. Count of elements : 1440
  241. Stream size : 51.4 KiB (0%)
  242. Title : Svenska
  243. Language : Swedish
  244. Default : No
  245. Forced : No
复制代码

云云众生/云上情歌4k Clouds.2020.HDR.2160p.WEB.h265.电影下载

云上情歌4k Clouds.2020.HDR.2160p.WEB.h265【19.35 GB】
云上情歌4k Clouds.2020.HDR.2160p.WEB.h265-KOGi.torrent (97.42 KB, 售价: 10 金币)
热门电影
关闭

站长通知上一条 /1 下一条

Copyright   ©2015-2016  4k群  Powered by©Discuz!  技术支持:4K群