天际浩劫3 Skylines.2020.1080p电影下载

[复制链接]
朱古力小酥酥 发表于 2020-12-24 16:02 | 显示全部楼层 |阅读模式
电影频道
电影封面:
片  名: 天际浩劫3
国  家: 美国   
电影分类: 动作   科幻   
分 辨 率: 4K(3840x2160)    
画质标准: 其他 
电影声道: 5.1声道   
资源大小: 5.78 GB
剧情简介: 经美国《银幕》杂志证实,《天际浩劫》的第三部正在确定投资方并且已经敲定了片名。报道还证实第二部的导演连姆·O·达诺很可能继续以导演和制片人的身份开始第三部续集的制作。演员阵容有待公布,目前消息称第二部主演弗兰科·格里罗以及其中曾出演《突袭》系列的伊科·乌艾斯和雅彦·鲁伊安不太可能回归。
Skylin3s/天际浩劫3 Skylines.2020.1080p.AMZN.WEBRip.DDP5.1.x264电影信息
  1. Video
  2. ID : 1
  3. Format : AVC
  4. Format/Info : Advanced Video Codec
  5. Format profile : High@L4
  6. Format settings : CABAC / 4 Ref Frames
  7. Format settings, CABAC : Yes
  8. Format settings, Reference frames : 4 frames
  9. Codec ID : V_MPEG4/ISO/AVC
  10. Duration : 1 h 53 min
  11. Bit rate mode : Constant
  12. Bit rate : 6 664 kb/s
  13. Nominal bit rate : 10 000 kb/s
  14. Width : 1 920 pixels
  15. Height : 800 pixels
  16. Display aspect ratio : 2.40:1
  17. Frame rate mode : Constant
  18. Frame rate : 23.976 (24000/1001) FPS
  19. Color space : YUV
  20. Chroma subsampling : 4:2:0
  21. Bit depth : 8 bits
  22. Scan type : Progressive
  23. Bits/(Pixel*Frame) : 0.181
  24. Stream size : 5.27 GiB (91%)
  25. Default : Yes
  26. Forced : No
  27. Color range : Limited
  28. Color primaries : BT.709
  29. Transfer characteristics : BT.709
  30. Matrix coefficients : BT.709

  31. Audio
  32. ID : 2
  33. Format : E-AC-3
  34. Format/Info : Enhanced AC-3
  35. Commercial name : Dolby Digital Plus
  36. Codec ID : A_EAC3
  37. Duration : 1 h 53 min
  38. Bit rate mode : Constant
  39. Bit rate : 640 kb/s
  40. Channel(s) : 6 channels
  41. Channel layout : L R C LFE Ls Rs
  42. Sampling rate : 48.0 kHz
  43. Frame rate : 31.250 FPS (1536 SPF)
  44. Compression mode : Lossy
  45. Stream size : 519 MiB (9%)
  46. Language : English
  47. Service kind : Complete Main
  48. Default : Yes
  49. Forced : No

  50. Text
  51. ID : 3
  52. Format : UTF-8
  53. Codec ID : S_TEXT/UTF8
  54. Codec ID/Info : UTF-8 Plain Text
  55. Duration : 1 h 44 min
  56. Bit rate : 46 b/s
  57. Count of elements : 1271
  58. Stream size : 35.4 KiB (0%)
  59. Title : SDH
  60. Language : English
  61. Default : No
  62. Forced : No
复制代码

Skylin3s/天际浩劫3 Skylines.2020.1080p.AMZN.WEBRip.DDP5.1.x264电影下载

天际浩劫3 Skylines.2020.1080p.AMZN.WEBRip.DDP5.1.x264【5.78 GB】
天际浩劫3 Skylines.2020.1080p.AMZN.WEBRip.DDP5.1.x264-NTG.torrent (29.44 KB, 售价: 10 金币)
热门电影
关闭

站长通知上一条 /1 下一条

Copyright   ©2015-2016  4k群  Powered by©Discuz!  技术支持:4K群