乐高星球大战:圣诞特别篇4k.2020.2160p.电影下载

[复制链接]
朱古力小酥酥 发表于 2021-1-6 17:41 | 显示全部楼层 |阅读模式
电影频道
电影封面:
片  名: 乐高星球大战:圣诞特别篇4k
国  家: 美国   
电影分类: 科幻   喜剧   动画   
分 辨 率: 4K(3840x2160)    
画质标准: HDR    
电影声道: 5.1声道   
资源大小: 5.28 GB
剧情简介: [乐高星球大战:圣诞特别篇]释出海报!该特别篇讲述雷伊继续她的绝地武士训练。她在一座绝地神庙中遇到了一些神秘的东西,让她在时间中飞驰,遇到了星战传奇人物,并参观了过去的一些地方,但她还是必须为了生命日回家。凯莉·玛丽·陈、比利·迪·威廉姆斯、安东尼·丹尼尔斯分别为罗斯·蒂可、兰多、C-3PO配音。该特别篇将于11月17日登陆Disney+。
乐高星球大战:假日特别篇/乐高星球大战:圣诞特别篇4k The.Lego.Star.Wars.Holiday.Special.2020.2160p.DSNP.WEBRip.x265.10bit.HDR.DDP5.1.电影信息
  1. Video
  2. ID : 1
  3. Format : HEVC
  4. Format/Info : High Efficiency Video Coding
  5. Format profile : Main 10@L5@High
  6. HDR format : SMPTE ST 2086, HDR10 compatible
  7. Codec ID : V_MPEGH/ISO/HEVC
  8. Duration : 45 min 9 s
  9. Bit rate : 16.5 Mb/s
  10. Width : 3 840 pixels
  11. Height : 2 160 pixels
  12. Display aspect ratio : 16:9
  13. Frame rate mode : Constant
  14. Frame rate : 23.976 (24000/1001) FPS
  15. Color space : YUV
  16. Chroma subsampling : 4:2:0
  17. Bit depth : 10 bits
  18. Bits/(Pixel*Frame) : 0.083
  19. Stream size : 5.20 GiB (98%)
  20. Default : Yes
  21. Forced : No
  22. Color range : Limited
  23. Color primaries : BT.2020
  24. Transfer characteristics : PQ
  25. Matrix coefficients : BT.2020 non-constant
  26. Mastering display color primaries : Display P3
  27. Mastering display luminance : min: 0.0000 cd/m2, max: 1000 cd/m2

  28. Audio
  29. ID : 2
  30. Format : E-AC-3
  31. Format/Info : Enhanced AC-3
  32. Commercial name : Dolby Digital Plus
  33. Codec ID : A_EAC3
  34. Duration : 44 min 57 s
  35. Bit rate mode : Constant
  36. Bit rate : 256 kb/s
  37. Channel(s) : 6 channels
  38. Channel layout : L R C LFE Ls Rs
  39. Sampling rate : 48.0 kHz
  40. Frame rate : 31.250 FPS (1536 SPF)
  41. Compression mode : Lossy
  42. Stream size : 82.3 MiB (2%)
  43. Language : English
  44. Service kind : Complete Main
  45. Default : Yes
  46. Forced : No

  47. Text #1
  48. ID : 3
  49. Format : UTF-8
  50. Codec ID : S_TEXT/UTF8
  51. Codec ID/Info : UTF-8 Plain Text
  52. Duration : 44 min 30 s
  53. Bit rate : 54 b/s
  54. Count of elements : 471
  55. Stream size : 17.9 KiB (0%)
  56. Language : Danish
  57. Default : No
  58. Forced : No

  59. Text #2
  60. ID : 4
  61. Format : UTF-8
  62. Codec ID : S_TEXT/UTF8
  63. Codec ID/Info : UTF-8 Plain Text
  64. Duration : 44 min 30 s
  65. Bit rate : 63 b/s
  66. Count of elements : 659
  67. Stream size : 20.7 KiB (0%)
  68. Language : German
  69. Default : No
  70. Forced : No

  71. Text #3
  72. ID : 5
  73. Format : UTF-8
  74. Codec ID : S_TEXT/UTF8
  75. Codec ID/Info : UTF-8 Plain Text
  76. Duration : 44 min 13 s
  77. Bit rate : 71 b/s
  78. Count of elements : 792
  79. Stream size : 23.2 KiB (0%)
  80. Title : (SDH)
  81. Language : English
  82. Default : No
  83. Forced : No

  84. Text #4
  85. ID : 6
  86. Format : UTF-8
  87. Codec ID : S_TEXT/UTF8
  88. Codec ID/Info : UTF-8 Plain Text
  89. Duration : 44 min 30 s
  90. Bit rate : 53 b/s
  91. Count of elements : 618
  92. Stream size : 17.4 KiB (0%)
  93. Language : Finnish
  94. Default : No
  95. Forced : No

  96. Text #5
  97. ID : 7
  98. Format : UTF-8
  99. Codec ID : S_TEXT/UTF8
  100. Codec ID/Info : UTF-8 Plain Text
  101. Duration : 44 min 30 s
  102. Bit rate : 55 b/s
  103. Count of elements : 620
  104. Stream size : 18.1 KiB (0%)
  105. Language : French
  106. Default : No
  107. Forced : No

  108. Text #6
  109. ID : 8
  110. Format : UTF-8
  111. Codec ID : S_TEXT/UTF8
  112. Codec ID/Info : UTF-8 Plain Text
  113. Duration : 44 min 30 s
  114. Bit rate : 58 b/s
  115. Count of elements : 618
  116. Stream size : 18.9 KiB (0%)
  117. Language : Italian
  118. Default : No
  119. Forced : No

  120. Text #7
  121. ID : 9
  122. Format : UTF-8
  123. Codec ID : S_TEXT/UTF8
  124. Codec ID/Info : UTF-8 Plain Text
  125. Duration : 44 min 30 s
  126. Bit rate : 56 b/s
  127. Count of elements : 515
  128. Stream size : 18.5 KiB (0%)
  129. Language : Dutch
  130. Default : No
  131. Forced : No

  132. Text #8
  133. ID : 10
  134. Format : UTF-8
  135. Codec ID : S_TEXT/UTF8
  136. Codec ID/Info : UTF-8 Plain Text
  137. Duration : 44 min 30 s
  138. Bit rate : 56 b/s
  139. Count of elements : 619
  140. Stream size : 18.3 KiB (0%)
  141. Language : Norwegian
  142. Default : No
  143. Forced : No

  144. Text #9
  145. ID : 11
  146. Format : UTF-8
  147. Codec ID : S_TEXT/UTF8
  148. Codec ID/Info : UTF-8 Plain Text
  149. Duration : 44 min 30 s
  150. Bit rate : 52 b/s
  151. Count of elements : 611
  152. Stream size : 17.1 KiB (0%)
  153. Language : Polish
  154. Default : No
  155. Forced : No

  156. Text #10
  157. ID : 12
  158. Format : UTF-8
  159. Codec ID : S_TEXT/UTF8
  160. Codec ID/Info : UTF-8 Plain Text
  161. Duration : 44 min 30 s
  162. Bit rate : 62 b/s
  163. Count of elements : 622
  164. Stream size : 20.4 KiB (0%)
  165. Language : Portuguese
  166. Default : No
  167. Forced : No

  168. Text #11
  169. ID : 13
  170. Format : UTF-8
  171. Codec ID : S_TEXT/UTF8
  172. Codec ID/Info : UTF-8 Plain Text
  173. Duration : 44 min 30 s
  174. Bit rate : 58 b/s
  175. Count of elements : 620
  176. Stream size : 19.2 KiB (0%)
  177. Language : Spanish
  178. Default : No
  179. Forced : No

  180. Text #12
  181. ID : 14
  182. Format : UTF-8
  183. Codec ID : S_TEXT/UTF8
  184. Codec ID/Info : UTF-8 Plain Text
  185. Duration : 44 min 30 s
  186. Bit rate : 54 b/s
  187. Count of elements : 617
  188. Stream size : 17.6 KiB (0%)
  189. Language : Swedish
  190. Default : No
  191. Forced : No
复制代码

乐高星球大战:假日特别篇/乐高星球大战:圣诞特别篇4k The.Lego.Star.Wars.Holiday.Special.2020.2160p.DSNP.WEBRip.x265.10bit.HDR.DDP5.1.电影下载
乐高星球大战:圣诞特别篇4k The.Lego.Star.Wars.Holiday.Special.2020.2160p.DSNP.WEBRip.x265.10bit.HDR.DDP5.1【5.28 GB】
乐高星球大战:圣诞特别篇4k The.Lego.Star.Wars.Holiday.Special.2020.2160p..torrent (26.97 KB, 售价: 10 金币)
热门电影
关闭

站长通知上一条 /1 下一条

Copyright   ©2015-2016  4k群  Powered by©Discuz!  技术支持:4K群