郊区男孩4k Street.Flow.2019.4k电影下载

[复制链接]
朱古力小酥酥 发表于 2021-1-28 18:14 | 显示全部楼层 |阅读模式
电影频道
电影封面:
片  名: 郊区男孩4k
国  家: 法国   
电影分类: 犯罪   
分 辨 率: 4K(3840x2160)    
画质标准: 其他 
电影声道: 5.1声道   
资源大小: 8.70 GB
剧情简介: 本剧讲述了来自巴黎问题郊区的三兄弟的故事。苏雷曼是巴黎的一名学业有成的法律系学生。他在一场著名的辩论决赛中遇到了丽萨,辩论的主题是政府对于郊区现状的责任。丹巴是三兄弟中年龄最大的,他在街头混迹,以贩毒为生。他们 15 岁的弟弟努姆克仍在努力寻找自己的出路,他必须决定跟随哪一位兄弟的脚步。一场战斗,一声枪响,一场悲剧。
巴黎男孩(台) / 巴黎的路口(港)/郊区男孩4k Street.Flow.2019.FRENCH.PROPER.2160p.NF.WEB-DL.x265.10bit.SDR.DDP5.1.电影下载
  1. Video
  2. ID : 1
  3. Format : HEVC
  4. Format/Info : High Efficiency Video Coding
  5. Format profile : Main 10@L5@Main
  6. Codec ID : V_MPEGH/ISO/HEVC
  7. Duration : 1 h 36 min
  8. Bit rate : 11.7 Mb/s
  9. Width : 3 840 pixels
  10. Height : 2 160 pixels
  11. Display aspect ratio : 16:9
  12. Frame rate mode : Constant
  13. Frame rate : 24.000 FPS
  14. Color space : YUV
  15. Chroma subsampling : 4:2:0
  16. Bit depth : 10 bits
  17. Bits/(Pixel*Frame) : 0.059
  18. Stream size : 7.84 GiB (90%)
  19. Default : Yes
  20. Forced : No
  21. Color range : Limited
  22. Color primaries : BT.709
  23. Transfer characteristics : BT.709
  24. Matrix coefficients : BT.709

  25. Audio #1
  26. ID : 2
  27. Format : E-AC-3
  28. Format/Info : Enhanced AC-3
  29. Commercial name : Dolby Digital Plus
  30. Codec ID : A_EAC3
  31. Duration : 1 h 36 min
  32. Bit rate mode : Constant
  33. Bit rate : 640 kb/s
  34. Channel(s) : 6 channels
  35. Channel layout : L R C LFE Ls Rs
  36. Sampling rate : 48.0 kHz
  37. Frame rate : 31.250 FPS (1536 SPF)
  38. Compression mode : Lossy
  39. Stream size : 440 MiB (5%)
  40. Title : DDP 5.1
  41. Language : French
  42. Service kind : Complete Main
  43. Default : Yes
  44. Forced : No

  45. Audio #2
  46. ID : 3
  47. Format : E-AC-3
  48. Format/Info : Enhanced AC-3
  49. Commercial name : Dolby Digital Plus
  50. Codec ID : A_EAC3
  51. Duration : 1 h 36 min
  52. Bit rate mode : Constant
  53. Bit rate : 640 kb/s
  54. Channel(s) : 6 channels
  55. Channel layout : L R C LFE Ls Rs
  56. Sampling rate : 48.0 kHz
  57. Frame rate : 31.250 FPS (1536 SPF)
  58. Compression mode : Lossy
  59. Stream size : 440 MiB (5%)
  60. Title : DDP 5.1
  61. Language : English
  62. Service kind : Complete Main
  63. Default : No
  64. Forced : No

  65. Text #1
  66. ID : 4
  67. Format : UTF-8
  68. Codec ID : S_TEXT/UTF8
  69. Codec ID/Info : UTF-8 Plain Text
  70. Duration : 1 h 28 min
  71. Bit rate : 0 b/s
  72. Count of elements : 7
  73. Stream size : 197 Bytes (0%)
  74. Title : Forced
  75. Language : English
  76. Default : Yes
  77. Forced : Yes

  78. Text #2
  79. ID : 5
  80. Format : UTF-8
  81. Codec ID : S_TEXT/UTF8
  82. Codec ID/Info : UTF-8 Plain Text
  83. Duration : 1 h 30 min
  84. Bit rate : 68 b/s
  85. Count of elements : 1318
  86. Stream size : 45.5 KiB (0%)
  87. Title : SDH
  88. Language : French
  89. Default : No
  90. Forced : No

  91. Text #3
  92. ID : 6
  93. Format : UTF-8
  94. Codec ID : S_TEXT/UTF8
  95. Codec ID/Info : UTF-8 Plain Text
  96. Duration : 1 h 30 min
  97. Bit rate : 65 b/s
  98. Count of elements : 1461
  99. Stream size : 43.1 KiB (0%)
  100. Title : SDH
  101. Language : English
  102. Default : No
  103. Forced : No

  104. Text #4
  105. ID : 7
  106. Format : UTF-8
  107. Codec ID : S_TEXT/UTF8
  108. Codec ID/Info : UTF-8 Plain Text
  109. Duration : 1 h 29 min
  110. Bit rate : 57 b/s
  111. Count of elements : 1238
  112. Stream size : 37.8 KiB (0%)
  113. Language : English
  114. Default : No
  115. Forced : No

  116. Text #5
  117. ID : 8
  118. Format : UTF-8
  119. Codec ID : S_TEXT/UTF8
  120. Codec ID/Info : UTF-8 Plain Text
  121. Duration : 1 h 35 min
  122. Bit rate : 91 b/s
  123. Count of elements : 1185
  124. Stream size : 63.8 KiB (0%)
  125. Language : Arabic
  126. Default : No
  127. Forced : No

  128. Text #6
  129. ID : 9
  130. Format : UTF-8
  131. Codec ID : S_TEXT/UTF8
  132. Codec ID/Info : UTF-8 Plain Text
  133. Duration : 1 h 35 min
  134. Bit rate : 53 b/s
  135. Count of elements : 1187
  136. Stream size : 37.4 KiB (0%)
  137. Language : Czech
  138. Default : No
  139. Forced : No

  140. Text #7
  141. ID : 10
  142. Format : UTF-8
  143. Codec ID : S_TEXT/UTF8
  144. Codec ID/Info : UTF-8 Plain Text
  145. Duration : 1 h 34 min
  146. Bit rate : 51 b/s
  147. Count of elements : 1046
  148. Stream size : 35.5 KiB (0%)
  149. Language : Danish
  150. Default : No
  151. Forced : No

  152. Text #8
  153. ID : 11
  154. Format : UTF-8
  155. Codec ID : S_TEXT/UTF8
  156. Codec ID/Info : UTF-8 Plain Text
  157. Duration : 1 h 34 min
  158. Bit rate : 57 b/s
  159. Count of elements : 1190
  160. Stream size : 39.6 KiB (0%)
  161. Language : German
  162. Default : No
  163. Forced : No

  164. Text #9
  165. ID : 12
  166. Format : UTF-8
  167. Codec ID : S_TEXT/UTF8
  168. Codec ID/Info : UTF-8 Plain Text
  169. Duration : 1 h 35 min
  170. Bit rate : 89 b/s
  171. Count of elements : 1181
  172. Stream size : 62.3 KiB (0%)
  173. Language : Greek
  174. Default : No
  175. Forced : No

  176. Text #10
  177. ID : 13
  178. Format : UTF-8
  179. Codec ID : S_TEXT/UTF8
  180. Codec ID/Info : UTF-8 Plain Text
  181. Duration : 1 h 34 min
  182. Bit rate : 56 b/s
  183. Count of elements : 1171
  184. Stream size : 38.6 KiB (0%)
  185. Language : Spanish
  186. Default : No
  187. Forced : No
复制代码

巴黎男孩(台) / 巴黎的路口(港)/郊区男孩4k Street.Flow.2019.FRENCH.PROPER.2160p.NF.WEB-DL.x265.10bit.SDR.DDP5.1.电影下载

郊区男孩4k Street.Flow.2019.FRENCH.PROPER.2160p.NF.WEB-DL.x265.10bit.SDR.DDP5.1【8.70 GB】
郊区男孩4k Street.Flow.2019.FRENCH.PROPER.2160p.NF.WEB-DL.x265.10bit.SDR..torrent (44.09 KB, 售价: 10 金币)
热门电影
关闭

站长通知上一条 /1 下一条

Copyright   ©2015-2016  4k群  Powered by©Discuz!  技术支持:4K群