[男女组合MV] [韩国UMAX.UHD]天堂槟城 2015(HEVC 60fps 10bit)[2160P/TS/10.4GB][百度云]

  [复制链接]
la哥 发表于 2017-3-21 10:30 | 显示全部楼层 |阅读模式
[tr][td][韩国UMAX.UHD]天堂槟城 2015(HEVC 60fps 10bit)[2160P/TS/10.4GB]0 ]# B) i" c, }* f# w0 f

- ~$ O+ Z4 K8 M" ^6 m% K( z2 DGeneral
& t3 E8 I. v- k7 g1 u2 K: SID : 1 (0x1)6 E$ n+ S9 Y8 g4 y. j4 g* s
Complete name : Paradise.in.Penang.2015.2160p.UHDTV.AAC2.0.HEVC-BtttS.ts
( u' d4 y: x) N! t4 a% V% l) b6 OFormat : MPEG-TS
# p; a0 j! o/ A3 u3 l. XFile size : 10.4 GiB
7 I! _" W$ \# VDuration : 44 min 38 s" }0 U6 i1 M  _+ b
Overall bit rate mode : Variable
4 c6 E! {9 Q7 I/ LOverall bit rate : 33.4 Mbps
  j# r- B$ w  n6 f5 @0 f
; B  B: q; z5 V  P3 @9 IVideo5 B% ^' }9 b( A! h; Y- _
ID : 256 (0x100)9 D. L/ M8 k0 L0 Z
Menu ID : 1 (0x1)
% r' D! Z' t) m9 ?/ H8 q% x7 UFormat : HEVC
# w" P# y5 u$ g: u6 EFormat/Info : High Efficiency Video Coding
$ h; R8 l1 e* x& Q; |5 [" ZFormat profile : Main [email protected]@Main
5 x7 l; D( H! b, W( x2 D! d9 LCodec ID : 36
; Q. h4 \' a. m& {Duration : 44 min 38 s; z& l& t; F, o5 O% ]6 b: z( j1 z
Bit rate : 31.3 Mbps
. ?: r2 M4 _7 ]% s5 u' iWidth : 3840 pixels, X: Z" @) m7 E
Height : 2160 pixels' B# m, d( B- L- Q: Q
Display aspect ratio : 16:9
% y1 {/ l0 l. O# dFrame rate : 60.000 FPS8 W9 |$ P/ L5 m- [8 F* E
Color space : YUV# f, v# e/ K3 @
Chroma subsampling : 4:2:0# D  N; g2 D: j2 c2 @
Bit depth : 10 bits- i* ?, _& k8 L  P2 N) d1 }- C4 U
Bits/(Pixel*Frame) : 0.063- S1 n; O5 v$ U4 {& A1 _
Stream size : 9.78 GiB (94%)" p1 H, H: B& J6 `6 B4 O2 ]
Writing library : ATEME www.4kqun.cn Titan KFE 3.6.2 (4.6.1.9)
- @  R0 U6 r# g+ C5 J) d$ h4 e8 u% c  K& N
Audio
3 R% c8 c% _$ K& F( r% g! y5 ^/ P# \ID : 257 (0x101)& Z6 |& r3 y1 q* ]! h7 L; h5 q
Menu ID : 1 (0x1)+ x& b" m% v* @# V% @
Format : AC-3/ r1 Y* Q# l# ]5 m
Format/Info : Audio Coding 3& `) [, U4 r% S9 x8 M4 H' n
Format settings, Endianness : Big% d( Y* u& r, b8 C4 A% i% K6 l
Codec ID : 129# M3 Z8 N8 f; ^  C9 }8 |% P
Duration : 44 min 38 s% h1 Q& J" \" k; @
Bit rate mode : Constant* c4 a5 o9 z8 T5 I8 H
Bit rate : 384 kb/s
% F0 K" u  V" z, jChannel(s) : 2 channels
7 f9 _! c$ B, j: QChannel positions : Front: L R
( A( i& ~5 W; ]- N) |5 d. T0 sSampling rate : 48.0 kHz. o& n+ Y+ W( G, p* W. \( Z% q1 j$ t
Frame rate : 31.250 FPS (1536 spf)3 l% i* X0 K( \4 c3 L% T
Bit depth : 16 bits
7 _3 }6 T# V( `2 A/ XCompression mode : Lossy) h& A0 p9 c  z2 c* A9 a0 Z% x2 [
Delay relative to video : 14 ms
- j2 T0 ~' |! d6 O/ gStream size : 123 MiB (1%), J% g$ }8 R) C) _& @8 b+ o
Language : Korean
/ h$ w, D8 {/ t# gService kind : Complete Main0 G: h3 b7 D5 N: m( i

/ w3 e- H( F% ?6 d8 ^9 Y+ xMenu
8 w4 t6 _. z" o" C  tID : 4096 (0x1000)
1 j; D5 S+ L+ }Menu ID : 1 (0x1)" S7 h- {" i$ v3 W( @' j$ o! L5 z* h/ J
Duration : 44 min 38 s; T7 b$ l1 O: `1 B
List : 256 (0x100) (HEVC) / 257 (0x101) (AC-3, Korean)
/ N3 |5 o) X' G2 R, H: b8 eLanguage : / Korean- p+ p" D& G" n- r
Service name : Shyguy, F5 o" Y+ U" L9 R  w  T- ~
Service provider : Born 2 Seed$ g1 V+ D1 b, U6 O7 {: P8 |3 C& g
Service type : digital television
/ f2 _+ Z6 Y7 H* T7 r! _4 x& S6 n- r- L/ J1 H' |
播放器potplaye/MPC-HC4 [& ?$ G& T2 u% c* A# z8 U
[韩国UMAX.UHD]天堂槟城 2015(HEVC 60fps 10bit)[2160P/TS/10.4GB][百度云]免费下载:
* |7 }/ W3 L# B* x1 \3 u6 I! T9 l/ J. `2 B5 t9 O
百度云下载.txt (63 Bytes, 下载次数: 28, 售价: 5 金币) . T, Y) o1 g# E+ ~+ W$ m

4 k( }9 E- w# |( X
2 g! S; t" J+ M* l* ]8 G解压密码:
游客,如果您要查看本帖隐藏内容请回复

# @! c6 _4 U$ e" s% a2 y
caige666 发表于 2020-1-1 16:21 | 显示全部楼层
资源过期了
热门电影
关闭

站长通知上一条 /1 下一条

Copyright   ©2015-2016  4k群  Powered by©Discuz!  技术支持:4K群