[4K美女MV] Girls.Day-Expectation(3D+4K-LG.demo)[MKV][785M][2160P]视频下载

[复制链接]
偷偷地发 发表于 2019-2-22 15:29 | 显示全部楼层 |阅读模式
Girls.Day-Expectation(3D+4K-LG.demo)[MKV][785M][2160P]视频下载+ ?. \* z* @! g4 x9 v
& e. O9 y8 n, g3 P5 z
  1. K:\Girls.Day-Expectation(3D+4K-LG.demo).mkv
      X) t; Y1 r6 G  s. \
  2.    General
    . ]0 n, S  @4 x
  3.       Unique ID : 184910490941714358126236528394472570283 (0x8B1C77144E685BA2899582825CCCBDAB)7 U1 e* `/ G+ w7 {, ~
  4.       Complete name : K:\Girls.Day-Expectation(3D+4K-LG.demo).mkv" f# C% Z& l; s( {5 D
  5.       Format : Matroska
    2 b! N' Q& _: Y4 M" ?+ d
  6.       Format version : Version 4 / Version 2& X5 V3 o8 s* J) L2 m
  7.       File size : 785 MiB0 M- B1 a6 G6 h# r) b8 @
  8.       Duration : 3 min 21 s
    , ~6 `" @! g+ w1 c& j+ ?! G
  9.       Overall bit rate : 32.7 Mb/s
      y2 S! ?( l- d/ e; x
  10.       Encoded date : UTC 2014-09-24 04:35:24
    ) J8 X$ d: S: N9 J& j* X% K) U6 m
  11.       Writing application : mkvmerge v7.2.0 ('On Every Street') 64bit built on Sep 13 2014 15:52:10
    : B) o% K# v) R% J7 {; a5 W
  12.       Writing library : libebml v1.3.0 + libmatroska v1.4.1
    ! g0 W' P* t# Y' ~
  13.    Video #2" g4 k- {' ~: q) O' A- c
  14.       ID : 2
    ( Y# P: ?4 L/ T; j
  15.       Format : AVC
    * F4 V' u0 J$ L6 Z$ N
  16.       Format/Info : Advanced Video Codec
    7 ~5 C/ d, U8 k4 {/ \' H" I- C! ]) ]
  17.       Format profile : [email protected]
    9 j& M' j, y9 {4 a) G
  18.       Format settings, CABAC : Yes7 ?9 k9 s0 A2 r8 C' W  q8 Y' {
  19.       Format settings, ReFrames : 5 frames' B# |- p4 y0 x" O9 q% ~4 ~# K
  20.       Codec ID : V_MPEG4/ISO/AVC
    / l/ `3 i$ `+ X. L& @0 m: b) ^. v
  21.       Duration : 3 min 21 s, o8 H" ?# d; G
  22.       Bit rate : 33.0 Mb/s
    1 H- {/ ^0 s. j4 A. Z( ]4 U
  23.       Width : 3 840 pixels
    0 @$ {& _" j$ e# L. }% |
  24.       Height : 2 160 pixels. m# i, p* n0 v: F6 a3 ?" e; r( w3 I9 D3 F
  25.       Display aspect ratio : 16:9
    ! y: ]$ A! Y0 Q/ ?# }& a
  26.       Frame rate mode : Constant
    : D& R8 M/ p! }5 q4 T3 a
  27.       Frame rate : 29.970 (29970/1000) FPS
    1 A+ \8 \* I) F! \) p7 h
  28.       Color space : YUV6 T* t5 G6 u3 r3 t8 i" T- }
  29.       Chroma subsampling : 4:2:0, Y7 \" j! R. n  m9 V; G* q
  30.       Bit depth : 8 bits, \  C/ v* F  u1 H
  31.       Scan type : Progressive
    ; T2 {5 O% e4 ?' Z" g6 X
  32.       Bits/(Pixel*Frame) : 0.133* ^: d( X! W" A! x; P, ~. x
  33.       Stream size : 780 MiB (99%)
    0 y. o- W2 l) Y  {) g5 n" T1 N( I: x' G
  34.       Writing library : x264 core 142 r2453 ea0ca51
    $ N, G5 J3 E4 y; f
  35.       Encoding settings : cabac=1 / ref=5 / deblock=1:0:0 / analyse=0x3:0x113 / me=umh / subme=8 / psy=1 / psy_rd=1.00:0.00 / mixed_ref=1 / me_range=16 / chroma_me=1 / trellis=1 / 8x8dct=1 / cqm=0 / deadzone=21,11 / fast_pskip=1 / chroma_qp_offset=-2 / threads=8 / lookahead_threads=8 / sliced_threads=1 / slices=8 / nr=0 / decimate=1 / interlaced=0 / bluray_compat=0 / constrained_i**a=0 / bframes=0 / weightp=2 / keyint=250 / keyint_min=25 / scenecut=40 / i**a_refresh=0 / rc=abr / mbtree=0 / bitrate=33000 / ratetol=1.0 / qcomp=0.60 / qpmin=0 / qpmax=69 / qpstep=4 / ip_ratio=1.40 / aq=1:1.00
      l, }0 |4 n& t# g; ~) h
  36.       Language : English
    - W8 G5 l" ?. M8 D( H1 e
  37.       Default : Yes2 H2 ^$ g- k% S$ w
  38.       Forced : No2 `6 k9 C/ \! Y8 T, I' F; w7 n' J
  39.    Audio #1( y( g" y9 a) o5 ]- ^; x
  40.       ID : 1
    7 d/ M- w. E3 H% M0 y6 U9 T
  41.       Format : AAC
    " t9 p; f  D' U/ _
  42.       Format/Info : Advanced Audio Codec
    " n/ L( i! k# D! \' p) T% U
  43.       Format profile : LC
    7 q' j1 W( C$ f& j
  44.       Codec ID : A_AAC2 K' ~4 Y# b% n, W$ P
  45.       Duration : 3 min 21 s# C6 L9 X$ F! Z* k/ S5 D
  46.       Bit rate : 192 kb/s" N2 }) S- b9 m- b# q
  47.       Channel(s) : 2 channels
    2 L' Z5 {# y' W: U6 `6 Q. |
  48.       Channel positions : Front: L R
    $ P9 r: `' T1 Q
  49.       Sampling rate : 48.0 kHz- }0 q, v' o1 \0 V6 ?
  50.       Frame rate : 46.875 FPS (1024 spf)9 L! @9 _, F" o' z
  51.       Compression mode : Lossy
    , A; w  W# ]9 G
  52.       Delay relative to video : 21 ms: w" m" `5 T% N, E- E
  53.       Stream size : 4.55 MiB (1%)3 X# x( y" G1 y. I
  54.       Default : Yes
    4 O4 a  W, A' l) K1 A9 t5 ^9 k: c
  55.       Forced : No
    8 [* i1 ~$ r, w; M  _  Y- T0 W
复制代码
Girls.Day-Expectation(3D+4K-LG.demo)[MKV][785M][2160P]视频下载:3 ]1 w  z+ I! P, p  E( C
Girls.Day-Expectation(3D+4K-LG.demo)[MKV][785M][2160P]视频下载:.txt (314 Bytes, 下载次数: 221) 6 D: X3 D% B3 J5 n0 H7 }

* U6 x& s. L$ g; B% Z0 u3 L
热门电影
关闭

站长通知上一条 /1 下一条

Copyright   ©2015-2016  4k群  Powered by©Discuz!  技术支持:4K群