流浪地球4k The.Wandering.Earth.2019.4K.WEB-DL.H265.AAC电影

  [复制链接]
朱古力小酥酥 发表于 2019-4-26 12:15 | 显示全部楼层 |阅读模式
流浪地球4k.jpg
导演: 郭帆
编剧: 龚格尔 / 严东旭 / 郭帆 / 叶俊策 / 杨治学 / 吴荑 / 叶濡畅 / 沈晶晶 / 刘慈欣
主演: 屈楚萧 / 吴京 / 李光洁 / 吴孟达 / 赵今麦 / 隋凯 / 屈菁菁 / 张亦驰 / 杨皓宇 / 阿尔卡基·沙罗格拉茨基 / 李虹辰 / 杨轶 / 姜志刚 / 张欢 / 雷佳音 / 宁浩 / 刘慈欣 / 郭京飞 / 王智 / 张子贤 / 路阳 / 张宁 / 张小北 / 饶晓志 / 陶珞依 / 吴晓亮 / 龚格尔 / 郭帆
类型: 科幻 / 灾难
制片国家/地区: 中国大陆
语言: 汉语普通话 / 英语 / 俄语 / 法语 / 日语 / 韩语 / 印尼语
上映日期: 2019-02-05(中国大陆)
片长: 125分钟
又名: The Wandering Earth

近未来,科学家们发现太阳急速衰老膨胀,短时间内包括地球在内的整个太阳系都将被太阳所吞没。为了自救,人类提出一个名为“流浪地球”的大胆计划,即倾全球之力在地球表面建造上万座发动机和转向发动机,推动地球离开太阳系,用2500年的时间奔往另外一个栖息之地。中国航天员刘培强(吴京 饰)在儿子刘启四岁那年前往国际空间站,和国际同侪肩负起领航者的重任。转眼刘启(屈楚萧 饰)长大,他带着妹妹朵朵(赵今麦 饰)偷偷跑到地表,偷开外公韩子昂(吴孟达 饰)的运输车,结果不仅遭到逮捕,还遭遇了全球发动机停摆的事件。为了修好发动机,阻止地球坠入木星,全球开始展开饱和式营救,连刘启他们的车也被强征加入。在与时间赛跑的过程中,无数的人前仆后继,奋不顾身,只为延续百代子孙生存的希望……
  本片根据刘慈欣的同名小说改编。

流浪地球4k The.Wandering.Earth.2019.4K.WEB-DL.H265.AAC电影信息
  1. General
  2. Complete name                  : E:\院线\流浪地球4k.The.Wandering.Earth.2019.4K.WEB-DL.H265.AAC-Anonymous-中英字幕\The.Wandering.Earth.2019.4K.WEB-DL.H265.AAC-Anonymous.mp4
  3. Format                         : MPEG-4
  4. Format profile                 : Base Media
  5. Codec ID                       : isom (isom/iso2/mp41)
  6. File size                      : 4.35 GiB
  7. Duration                       : 2 h 4 min
  8. Overall bit rate mode          : Variable
  9. Overall bit rate               : 4 993 kb/s
  10. Writing application            : Lavf57.83.100

  11. Video
  12. ID                             : 1
  13. Format                         : HEVC
  14. Format/Info                    : High Efficiency Video Coding
  15. Format profile                 : Main@L5@Main
  16. Codec ID                       : hev1
  17. Codec ID/Info                  : High Efficiency Video Coding
  18. Duration                       : 2 h 4 min
  19. Bit rate                       : 4 923 kb/s
  20. Width                          : 3 840 pixels
  21. Height                         : 1 728 pixels
  22. Display aspect ratio           : 2.222
  23. Frame rate mode                : Variable
  24. Frame rate                     : 23.976 (23976/1000) FPS
  25. Minimum frame rate             : 0.186 FPS
  26. Maximum frame rate             : 29.821 FPS
  27. Original frame rate            : 24.000 FPS
  28. Color space                    : YUV
  29. Chroma subsampling             : 4:2:0
  30. Bit depth                      : 8 bits
  31. Bits/(Pixel*Frame)             : 0.031
  32. Stream size                    : 4.29 GiB (99%)
  33. Codec configuration box        : hvcC

  34. Audio
  35. ID                             : 2
  36. Format                         : AAC LC SBR
  37. Format/Info                    : Advanced Audio Codec Low Complexity with Spectral Band Replication
  38. Commercial name                : HE-AAC
  39. Format settings                : Implicit
  40. Codec ID                       : mp4a-40-2
  41. Duration                       : 2 h 4 min
  42. Bit rate mode                  : Variable
  43. Bit rate                       : 62.8 kb/s
  44. Maximum bit rate               : 64.3 kb/s
  45. Channel(s)                     : 2 channels
  46. Channel layout                 : L R
  47. Sampling rate                  : 44.1 kHz
  48. Frame rate                     : 21.533 FPS (2048 SPF)
  49. Compression mode               : Lossy
  50. Stream size                    : 56.0 MiB (1%)
  51. Default                        : Yes
  52. Alternate group                : 1
复制代码


流浪地球4k The.Wandering.Earth.2019.4K.WEB-DL.H265.AAC电影下载

流浪地球4k The.Wandering.Earth.2019.4K.WEB-DL.H265.AAC【4.34GB】
流浪地球4k.The.Wandering.Earth.2019.4K.WEB-DL.H265.AAC-Anonymous-中英字幕.torrent (12.66 KB, 售价: 20 金币)

The.Wandering.Earth.2019.CHINESE.1080p.WEBRip.AAC2.0.x264-STUTTERSHIT.torrent

49.11 KB,

售价: 20 金币  [记录]

超越自已 发表于 2019-11-23 00:37 来自 移动版  | 显示全部楼层
资源是真的,感谢
热门电影
关闭

站长通知上一条 /1 下一条

Copyright   ©2015-2016  4k群  Powered by©Discuz!  技术支持:4K群