第一滴血5:最后的血1080p高清电影下载

[复制链接]
朱古力小酥酥 发表于 2019-11-22 11:42 | 显示全部楼层 |阅读模式

导演: 阿德里安·格鲁伯格
编剧: 马修·西鲁尼克 / 大卫·莫瑞尔 / 西尔维斯特·史泰龙
主演: 西尔维斯特·史泰龙 / 帕斯·贝加 / 路易·曼迪勒 / 奥斯卡·贾恩那达 / 维特·蒙雷尔 / 华金·科西奥 / 杰西卡·马德森 / 艾德里安娜·巴拉扎 / 塞尔吉奥·佩里斯-门切塔 / 阿塔纳斯·斯雷布雷夫 / 尼克·威特曼
类型: 动作 / 惊悚 / 冒险
制片国家/地区: 美国
语言: 英语
上映日期: 2019-09-20(美国)
片长: 89分钟 / 101分钟
又名: 第一滴血:终极血战(港) / 蓝波:最后一滴血(台) / 第一滴血5 / 兰博5:最后一滴血 / 第一滴血:最后一战 / Rambo V / Rambo 5 / Rambo 5: Last Blood / Rambo V: Last Blood

第一滴血5:最后的血的剧情简介 · · · · · ·
  西尔维斯特·史泰龙回归[第一滴血5],并有望执导。除主演外,据悉史泰龙将操刀剧本,故事围绕兰博为营救朋友之女与墨西哥毒枭展开殊死搏斗展开。制片艾威·勒纳([敢死队]系列)。该系列首部于1982年上映,2008年史泰龙曾自导自演[第一滴血4]。[第一滴血5]将在本届戛纳电影节预售,9月开拍。

第一滴血5:最后的血资源信息:
  1. Video
  2. ID : 1
  3. Format : AVC
  4. Format/Info : Advanced Video Codec
  5. Format profile : High@L4.1
  6. Format settings : CABAC / 4 Ref Frames
  7. Format settings, CABAC : Yes
  8. Format settings, Reference frames : 4 frames
  9. Codec ID : V_MPEG4/ISO/AVC
  10. Duration : 1 h 30 min
  11. Bit rate : 4 800 kb/s
  12. Width : 1 920 pixels
  13. Height : 800 pixels
  14. Display aspect ratio : 2.40:1
  15. Frame rate mode : Constant
  16. Frame rate : 30.000 FPS
  17. Color space : YUV
  18. Chroma subsampling : 4:2:0
  19. Bit depth : 8 bits
  20. Scan type : Progressive
  21. Bits/(Pixel*Frame) : 0.104
  22. Stream size : 3.04 GiB (95%)
  23. Title : Rambo.Last.Blood.2019.1080p.KORSUB.HDRip.x264.AAC2.0-STUTTERSHIT
  24. Writing library : x264 core 148 r2748 97eaef2
  25. Encoding settings : cabac=1 / ref=4 / deblock=1:0:0 / analyse=0x3:0x113 / me=umh / subme=9 / psy=1 / psy_rd=1.00:0.00 / mixed_ref=1 / me_range=16 / chroma_me=1 / trellis=2 / 8x8dct=1 / cqm=0 / deadzone=21,11 / fast_pskip=1 / chroma_qp_offset=-2 / threads=72 / lookahead_threads=6 / sliced_threads=0 / nr=0 / decimate=1 / interlaced=0 / bluray_compat=0 / constrained_intra=0 / bframes=3 / b_pyramid=2 / b_adapt=2 / b_bias=0 / direct=3 / weightb=1 / open_gop=0 / weightp=2 / keyint=250 / keyint_min=25 / scenecut=40 / intra_refresh=0 / rc_lookahead=50 / rc=abr / mbtree=1 / bitrate=4800 / ratetol=1.0 / qcomp=0.60 / qpmin=0 / qpmax=69 / qpstep=4 / ip_ratio=1.40 / aq=1:1.00
  26. Language : English
  27. Default : Yes
  28. Forced : No

  29. Audio
  30. ID : 2
  31. Format : AAC LC
  32. Format/Info : Advanced Audio Codec Low Complexity
  33. Codec ID : A_AAC-2
  34. Duration : 1 h 30 min
  35. Bit rate : 256 kb/s
  36. Channel(s) : 2 channels
  37. Channel layout : L R
  38. Sampling rate : 48.0 kHz
  39. Frame rate : 46.875 FPS (1024 SPF)
  40. Compression mode : Lossy
  41. Stream size : 166 MiB (5%)
  42. Title : Rambo.Last.Blood.2019.1080p.KORSUB.HDRip.x264.AAC2.0-STUTTERSHIT
  43. Language : English
  44. Default : Yes
  45. Forced : No
复制代码

第一滴血5:最后的血资源下载:

第一滴血5:最后的血 Rambo.Last.Blood.2019.1080p.KORSUB.HDRip.x264.AAC2.0【3.20 GB】
第一滴血5:最后的血 Rambo.Last.Blood.2019.1080p.KORSUB.HDRip.x264.AAC2.0-STUTTER.torrent (32.62 KB, 售价: 10 金币)
放下所有痛 发表于 2019-11-26 15:37 | 显示全部楼层
不亏是4k群,不知道我算不算入群了?
独手毁天下 发表于 2019-12-4 09:05 来自 移动版  | 显示全部楼层
牛逼,每次都是最快更新院线电影,等待高清或者4k版本的
世路2011 发表于 2019-12-6 22:40 | 显示全部楼层
独手毁天下 发表于 2019-12-4 09:05
牛逼,每次都是最快更新院线电影,等待高清或者4k版本的

感谢楼主分享
看清所以看轻 发表于 2020-1-24 13:15 | 显示全部楼层
速度很快
虎躯一震! 发表于 2020-1-26 21:32 来自 移动版  | 显示全部楼层
哈哈,很快啊
Scar▁ 发表于 2020-1-28 06:41 来自 移动版  | 显示全部楼层
资源发布速度贼快啊,哈哈哈
D調dē華麗 发表于 2020-1-28 19:26 来自 移动版  | 显示全部楼层
牛逼,每次都是最快更新院线电影,等待高清或者4k版本的
知世故而不世故 发表于 2020-2-5 05:07 来自 移动版  | 显示全部楼层
我的天,这院线资源速度也太快了吧
热门电影
关闭

站长通知上一条 /1 下一条

Copyright   ©2015-2016  4k群  Powered by©Discuz!  技术支持:4K群