星球大战4k Star.Wars.Episode.IV.A.New.Hope.1977.2160p电影

[复制链接]
朱古力小酥酥 发表于 2019-12-5 21:10 | 显示全部楼层 |阅读模式
星球大战第四集:新希望 / 星际大战四部曲:曙光乍现 / 星际大战 / Star Wars: Episode IV - A New Hope/星球大战4k Star.Wars.Episode.IV.A.New.Hope.1977.2160p.DSNP.WEBRip.x265.10bit.HDR.DTS-HD.MA.6.1电影
  1. Video
  2. ID : 1
  3. Format : HEVC
  4. Format/Info : High Efficiency Video Coding
  5. Format profile : Main 10@L5@Main
  6. Codec ID : V_MPEGH/ISO/HEVC
  7. Duration : 2 h 4 min
  8. Bit rate : 17.9 Mb/s
  9. Width : 3 840 pixels
  10. Height : 1 608 pixels
  11. Display aspect ratio : 2.40:1
  12. Frame rate mode : Constant
  13. Frame rate : 23.976 (24000/1001) FPS
  14. Color space : YUV
  15. Chroma subsampling : 4:2:0
  16. Bit depth : 10 bits
  17. Bits/(Pixel*Frame) : 0.121
  18. Stream size : 15.6 GiB (78%)
  19. Writing library : x265 3.2+9-971180b100f8:[Windows][MSVC 1923][64 bit] 10bit
  20. Encoding settings : cpuid=1111039 / frame-threads=4 / numa-pools=28,0 / wpp / no-pmode / no-pme / no-psnr / no-ssim / log-level=2 / input-csp=1 / input-res=3840x1608 / interlace=0 / total-frames=0 / level-idc=0 / high-tier=1 / uhd-bd=0 / ref=5 / no-allow-non-conformance / repeat-headers / annexb / no-aud / no-hrd / info / hash=0 / no-temporal-layers / open-gop / min-keyint=23 / keyint=250 / gop-lookahead=0 / bframes=8 / b-adapt=2 / b-pyramid / bframe-bias=0 / rc-lookahead=40 / lookahead-slices=0 / scenecut=40 / radl=0 / no-splice / no-intra-refresh / ctu=64 / min-cu-size=8 / no-rect / no-amp / max-tu-size=32 / tu-inter-depth=3 / tu-intra-depth=3 / limit-tu=0 / rdoq-level=1 / dynamic-rd=0.00 / no-ssim-rd / signhide / no-tskip / nr-intra=0 / nr-inter=0 / no-constrained-intra / strong-intra-smoothing / max-merge=5 / limit-refs=0 / no-limit-modes / me=3 / subme=4 / merange=57 / temporal-mvp / no-frame-dup / no-hme / weightp / weightb / no-analyze-src-pics / deblock=0:0 / no-sao / no-sao-non-deblock / rd=6 / selective-sao=0 / no-early-skip / rskip / no-fast-intra / no-tskip-fast / no-cu-lossless / b-intra / no-splitrd-skip / rdpenalty=0 / psy-rd=4.00 / psy-rdoq=8.00 / no-rd-refine / no-lossless / cbqpoffs=0 / crqpoffs=0 / rc=crf / crf=16.0 / qcomp=0.60 / qpstep=4 / stats-write=0 / stats-read=0 / ipratio=1.40 / pbratio=1.30 / aq-mode=2 / aq-strength=1.00 / cutree / zone-count=0 / no-strict-cbr / qg-size=32 / no-rc-grain / qpmax=69 / qpmin=0 / no-const-vbv / sar=0 / overscan=0 / videoformat=5 / range=0 / colorprim=9 / transfer=16 / colormatrix=9 / chromaloc=0 / display-window=0 / cll=0,0 / min-luma=0 / max-luma=1023 / log2-max-poc-lsb=8 / vui-timing-info / vui-hrd-info / slices=1 / no-opt-qp-pps / no-opt-ref-list-length-pps / no-multi-pass-opt-rps / scenecut-bias=0.05 / no-opt-cu-delta-qp / no-aq-motion / hdr / hdr-opt / no-dhdr10-opt / no-idr-recovery-sei / analysis-reuse-level=5 / scale-factor=0 / refine-intra=0 / refine-inter=0 / refine-mv=1 / refine-ctu-distortion=0 / no-limit-sao / ctu-info=0 / no-lowpass-dct / refine-analysis-type=0 / copy-pic=1 / max-ausize-factor=1.0 / no-dynamic-refine / no-single-sei / no-hevc-aq / no-svt / no-field / qp-adaptation-range=1.00
  21. Default : Yes
  22. Forced : No
  23. Color range : Limited
  24. Color primaries : BT.2020
  25. Transfer characteristics : PQ
  26. Matrix coefficients : BT.2020 non-constant

  27. Audio #1
  28. ID : 2
  29. Format : DTS ES XXCH XLL
  30. Format/Info : Digital Theater Systems
  31. Commercial name : DTS-HD Master Audio
  32. Codec ID : A_DTS
  33. Duration : 2 h 4 min
  34. Bit rate mode : Variable
  35. Bit rate : 4 069 kb/s
  36. Channel(s) : 7 channels
  37. Channel layout : C L R Ls Rs LFE Cb
  38. Sampling rate : 48.0 kHz
  39. Frame rate : 93.750 FPS (512 SPF)
  40. Bit depth : 24 bits
  41. Compression mode : Lossless
  42. Stream size : 3.55 GiB (18%)
  43. Title : English DTS-HDMA 6.1
  44. Language : English
  45. Default : Yes
  46. Forced : No
复制代码

星球大战第四集:新希望 / 星际大战四部曲:曙光乍现 / 星际大战 / Star Wars: Episode IV - A New Hope/星球大战4k Star.Wars.Episode.IV.A.New.Hope.1977.2160p.DSNP.WEBRip.x265.10bit.HDR.DTS-HD.MA.6.1电影
星球大战4k Star.Wars.Episode.IV.A.New.Hope.1977.2160p.DSNP.WEBRip.x265.10bit.HDR.DTS-HD.MA.6.1[19.94 GB]
星球大战4k Star.Wars.Episode.IV.A.New.Hope.1977.2160p.DSNP.WEBRip.x265.10bit.HDR.torrent (100.33 KB, 售价: 10 金币)
人在旅途 发表于 2019-12-5 23:45 来自 移动版  | 显示全部楼层
下载速度一级棒
发奋图强 发表于 2019-12-12 00:20 来自 移动版  | 显示全部楼层
谢谢楼主发布,质量很好
安安分分的男人 发表于 2019-12-14 14:55 来自 移动版  | 显示全部楼层
跟朋友聊天,朋友推荐我加入4k群这个网站,资源果然很不错!!
鹿吟成糜 发表于 2020-1-9 07:05 | 显示全部楼层
跟朋友聊天,朋友推荐我加入4k群这个网站,资源果然很不错!!
趁我还在 发表于 2020-1-12 19:44 | 显示全部楼层
资源真心很好,很值
心有归属 发表于 2020-1-26 03:37 | 显示全部楼层
班上的同学告诉我这个4k群的资源质量很好,下载试试
热门电影
关闭

站长通知上一条 /1 下一条

Copyright   ©2015-2016  4k群  Powered by©Discuz!  技术支持:4K群