安娜1080p高清电影下载

[复制链接]
朱古力小酥酥 发表于 2020-1-6 22:06 | 显示全部楼层 |阅读模式
安娜.jpg
导演: 查尔斯·麦克道格
编剧: Cris Cole
主演: 达芙妮·基恩 / 路易斯·古兹曼 / 劳伦·维勒斯 / 安迪·加西亚 / 拉蒙·弗兰克 / julitza berberena / 玛丽安娜·奥德诺 / blas sien diaz / ramiro 'ramir' delgado ruiz / aris mejias
类型: 剧情
制片国家/地区: 美国 / 波多黎各
语言: 英语
上映日期: 2020-01-03(美国) / 2020(美国)
片长: 105分钟

安娜的剧情简介 · · · · · ·
  “X-23”达芙妮·基恩将加盟剧情片[安娜]。新片导演为查尔斯·麦克道格(《纸牌屋》),编剧克里斯·科尔(《癫狂之旅》)。《毒枭》主演路易斯·古兹曼也将在片中饰演一名商人 ,两人偶遇之后产生了一段“奇妙诡异”的友谊,并就此踏上一段未知的旅程。

安娜资源信息:
  1. Video
  2. ID : 1
  3. Format : AVC
  4. Format/Info : Advanced Video Codec
  5. Format profile : High@L4
  6. Format settings : CABAC / 5 Ref Frames
  7. Format settings, CABAC : Yes
  8. Format settings, Reference frames : 5 frames
  9. Codec ID : V_MPEG4/ISO/AVC
  10. Duration : 1 h 45 min
  11. Bit rate : 4 564 kb/s
  12. Width : 1 912 pixels
  13. Height : 800 pixels
  14. Display aspect ratio : 2.40:1
  15. Frame rate mode : Constant
  16. Frame rate : 23.976 FPS
  17. Color space : YUV
  18. Chroma subsampling : 4:2:0
  19. Bit depth : 8 bits
  20. Scan type : Progressive
  21. Bits/(Pixel*Frame) : 0.124
  22. Stream size : 3.37 GiB (92%)
  23. Title : Ana.2019.1080p.WEB-DL.DD5.1.H264-FGT
  24. Language : English
  25. Default : Yes
  26. Forced : No
  27. Color range : Limited
  28. Color primaries : BT.709
  29. Transfer characteristics : BT.709
  30. Matrix coefficients : BT.709

  31. Audio
  32. ID : 2
  33. Format : AC-3
  34. Format/Info : Audio Coding 3
  35. Commercial name : Dolby Digital
  36. Codec ID : A_AC3
  37. Duration : 1 h 45 min
  38. Bit rate mode : Constant
  39. Bit rate : 384 kb/s
  40. Channel(s) : 6 channels
  41. Channel layout : L R C LFE Ls Rs
  42. Sampling rate : 48.0 kHz
  43. Frame rate : 31.250 FPS (1536 SPF)
  44. Bit depth : 16 bits
  45. Compression mode : Lossy
  46. Stream size : 290 MiB (8%)
  47. Title : Ana.2019.1080p.WEB-DL.DD5.1.H264-FGT
  48. Language : English
  49. Service kind : Complete Main
  50. Default : Yes
  51. Forced : No

  52. Text
  53. ID : 3
  54. Format : UTF-8
  55. Codec ID : S_TEXT/UTF8
  56. Codec ID/Info : UTF-8 Plain Text
  57. Duration : 1 h 43 min
  58. Bit rate : 64 b/s
  59. Count of elements : 1402
  60. Stream size : 49.3 KiB (0%)
  61. Language : English
  62. Default : Yes
  63. Forced : No

  64. Menu
  65. 00:00:00.000 : en:Chapter 1
  66. 00:10:06.690 : en:Chapter 2
  67. 00:19:35.050 : en:Chapter 3
  68. 00:29:52.500 : en:Chapter 4
  69. 00:39:03.466 : en:Chapter 5
  70. 00:49:41.937 : en:Chapter 6
  71. 00:59:55.091 : en:Chapter 7
  72. 01:08:51.544 : en:Chapter 8
  73. 01:19:38.940 : en:Chapter 9
  74. 01:29:49.674 : en:Chapter 10
  75. 01:41:11.105 : en:Chapter 11
  76. 01:43:02.799 : en:Chapter 12
复制代码

安娜资源下载:

安娜 Ana.2019.1080p.WEB-DL.DD5.1.H264【3.65 GB】
安娜 Ana.2019.1080p.WEB-DL.DD5.1.H264-FGT.torrent (37.04 KB, 售价: 10 金币)
吞咽沧桑 发表于 2020-1-6 22:18 来自 移动版  | 显示全部楼层
速度很快
会长大的幸福 发表于 2020-1-22 02:07 来自 移动版  | 显示全部楼层
好快啊,厉害
懂の紾惜。 发表于 2020-1-26 12:18 来自 移动版  | 显示全部楼层
速度很快
温柔喂了狗 发表于 2020-1-27 11:44 | 显示全部楼层
这部电影国内还需要等几天才上映呢
温柔的野兽 发表于 2020-2-4 19:08 来自 移动版  | 显示全部楼层
好快啊,厉害
山间雾野 发表于 2020-2-5 00:59 | 显示全部楼层
我的天,这院线资源速度也太快了吧
停止呼吸 发表于 2020-2-9 14:22 | 显示全部楼层
我的天,让我 惊讶到了,电影院还在上映呢
热门电影
关闭

站长通知上一条 /1 下一条

Copyright   ©2015-2016  4k群  Powered by©Discuz!  技术支持:4K群