哈丽特高清电影下载

[复制链接]
朱古力小酥酥 发表于 2020-1-6 22:11 | 显示全部楼层 |阅读模式

导演: 卡斯·莱蒙斯
编剧: 卡斯·莱蒙斯 / 格雷戈里·艾伦·霍华德
主演: 辛西娅·艾莉佛 / 乔·阿尔文 / 加奈儿·梦奈 / 詹妮弗·内特尔斯 / 蒂姆·金尼 / 瓦妮莎·贝尔·卡洛威 / 克拉克·彼得斯 / 小莱斯利·奥多姆 / 沃迪·科蒂斯·霍尔 / 黛博拉·艾里德 / 托利·基特尔斯 / 奥马尔·J·多尔西 / 米切尔·霍格 / 施奎塔·詹姆斯 / 扎克瑞·莫莫 / 阿里娅·布鲁克斯 / 迈克尔·图尔克 / 约瑟夫·李·安德森 / 皮特·布里斯 / 托马斯·基根
类型: 剧情 / 传记 / 历史
制片国家/地区: 美国
语言: 英语
上映日期: 2019-09-10(多伦多电影节) / 2019-11-01(美国)
片长: 125分钟
又名: 自由之火 / Freedom Fire

哈丽特的剧情简介 · · · · · ·
  乔·阿尔文、小莱斯利·奥多姆将加盟传记影片[哈丽特],先前宣布加盟的卡司包括辛西娅·埃里沃、克拉克·彼得斯等。塞斯·曼恩(《国土安全》)执导。哈丽特·塔布曼生于1822年,原本是生活在马里兰州的黑奴,1849年她逃到北方,不久后加入到帮助奴隶逃亡的美国“地下铁路”中,成为最活跃的领袖之一,多次回到家乡带领其他奴隶逃往北方。南北战争爆发后,塔布曼积极参战,成为北军中为数不多的女性,战后她投身了争取妇女权益的运动。哈丽特也是首位登上美元的女性。影片将于下月在美国弗吉尼亚州开拍。


哈丽特资源信息:
  1. Video
  2. ID : 1
  3. Format : AVC
  4. Format/Info : Advanced Video Codec
  5. Format profile : High@L5.1
  6. Format settings : CABAC / 5 Ref Frames
  7. Format settings, CABAC : Yes
  8. Format settings, Reference frames : 5 frames
  9. Format settings, GOP : M=4, N=33
  10. Muxing mode : Header stripping
  11. Codec ID : V_MPEG4/ISO/AVC
  12. Duration : 2 h 5 min
  13. Bit rate mode : Variable
  14. Bit rate : 4 006 kb/s
  15. Maximum bit rate : 8 000 kb/s
  16. Width : 1 280 pixels
  17. Height : 534 pixels
  18. Display aspect ratio : 2.40:1
  19. Frame rate mode : Constant
  20. Frame rate : 29.970 (30000/1001) FPS
  21. Standard : NTSC
  22. Color space : YUV
  23. Chroma subsampling : 4:2:0
  24. Bit depth : 8 bits
  25. Scan type : Progressive
  26. Bits/(Pixel*Frame) : 0.196
  27. Stream size : 3.50 GiB (92%)
  28. Language : English
  29. Default : Yes
  30. Forced : No
  31. Color range : Limited
  32. Color primaries : BT.709
  33. Transfer characteristics : BT.709
  34. Matrix coefficients : BT.709

  35. Audio
  36. ID : 2
  37. Format : AC-3
  38. Format/Info : Audio Coding 3
  39. Commercial name : Dolby Digital
  40. Muxing mode : Header stripping
  41. Codec ID : A_AC3
  42. Duration : 2 h 5 min
  43. Bit rate mode : Constant
  44. Bit rate : 256 kb/s
  45. Channel(s) : 2 channels
  46. Channel layout : L R
  47. Sampling rate : 48.0 kHz
  48. Frame rate : 31.250 FPS (1536 SPF)
  49. Bit depth : 16 bits
  50. Compression mode : Lossy
  51. Stream size : 229 MiB (6%)
  52. Service kind : Complete Main
  53. Default : Yes
  54. Forced : No
复制代码

哈丽特资源下载:

哈丽特 Harriet.2019.720P.DVDScr.x264.AC3.HQ.Hive【3.83 GB】
哈丽特 Harriet.2019.720P.DVDScr.x264.AC3.HQ.Hive-CM8.torrent (38.9 KB, 售价: 10 金币)
我怎能不爱你 发表于 2020-1-6 22:45 来自 移动版  | 显示全部楼层
速度很快
情绪 发表于 2020-1-25 11:44 来自 移动版  | 显示全部楼层
这部电影国内还需要等几天才上映呢
热门电影
关闭

站长通知上一条 /1 下一条

Copyright   ©2015-2016  4k群  Powered by©Discuz!  技术支持:4K群