疾速杀机1080p高清电影下载

[复制链接]
朱古力小酥酥 发表于 2020-1-6 22:35 | 显示全部楼层 |阅读模式

导演: Michael Merino / Daniel Zirilli
编剧: Michael Merino / Daniel Zirilli / 娜塔莉·伯恩
主演: 肖恩·派特里克·弗兰纳里 / 杜夫·龙格尔 / 查克·林德尔 / 娜塔莉·伯恩 / 奎顿·杰克逊 / 丹尼·特雷霍
类型: 动作 / 犯罪
制片国家/地区: 美国
语言: 英语
上映日期: 2019-11-08(美国)
片长: 85分钟
又名: The Driver

疾速杀机的剧情简介 · · · · · ·
  弗拉迪克·佐里奇(杜夫·龙格尔饰)是洛杉矶地下枪支、赌博、毒品和器官非法交易的幕后黑手,然而他发现自己却被他最信任的助手罗娜·齐奥基(娜塔莉·伯恩饰)欺骗了,弗拉迪克怒不可遏,绑架了罗娜的小儿子,并迫使罗娜参与了一项暗杀弗拉迪克敌人的行动,面对命悬一线的儿子,罗娜应该作何抉择,弗拉迪克又能否如愿以偿....

疾速杀机资源信息:
  1. Video
  2. ID : 1
  3. Format : AVC
  4. Format/Info : Advanced Video Codec
  5. Format profile : High@L4.1
  6. Format settings : CABAC / 4 Ref Frames
  7. Format settings, CABAC : Yes
  8. Format settings, Reference frames : 4 frames
  9. Codec ID : V_MPEG4/ISO/AVC
  10. Duration : 1 h 25 min
  11. Bit rate : 9 502 kb/s
  12. Width : 1 920 pixels
  13. Height : 1 080 pixels
  14. Display aspect ratio : 16:9
  15. Frame rate mode : Constant
  16. Frame rate : 23.976 (24000/1001) FPS
  17. Color space : YUV
  18. Chroma subsampling : 4:2:0
  19. Bit depth : 8 bits
  20. Scan type : Progressive
  21. Bits/(Pixel*Frame) : 0.191
  22. Stream size : 5.64 GiB (86%)
  23. Writing library : x264 core 159 r2991 1771b55
  24. Encoding settings : cabac=1 / ref=4 / deblock=1:0:0 / analyse=0x3:0x113 / me=umh / subme=8 / psy=1 / psy_rd=1.00:0.00 / mixed_ref=1 / me_range=16 / chroma_me=1 / trellis=2 / 8x8dct=1 / cqm=0 / deadzone=21,11 / fast_pskip=0 / chroma_qp_offset=-2 / threads=24 / lookahead_threads=4 / sliced_threads=0 / nr=0 / decimate=1 / interlaced=0 / bluray_compat=0 / constrained_intra=0 / bframes=3 / b_pyramid=2 / b_adapt=1 / b_bias=0 / direct=1 / weightb=1 / open_gop=0 / weightp=2 / keyint=250 / keyint_min=23 / scenecut=40 / intra_refresh=0 / rc_lookahead=50 / rc=2pass / mbtree=1 / bitrate=9502 / ratetol=1.0 / qcomp=0.60 / qpmin=0 / qpmax=69 / qpstep=4 / cplxblur=20.0 / qblur=0.5 / ip_ratio=1.40 / aq=1:1.00
  25. Default : Yes
  26. Forced : No

  27. Audio
  28. ID : 2
  29. Format : DTS
  30. Format/Info : Digital Theater Systems
  31. Codec ID : A_DTS
  32. Duration : 1 h 25 min
  33. Bit rate mode : Constant
  34. Bit rate : 1 509 kb/s
  35. Channel(s) : 6 channels
  36. Channel layout : C L R Ls Rs LFE
  37. Sampling rate : 48.0 kHz
  38. Frame rate : 93.750 FPS (512 SPF)
  39. Bit depth : 24 bits
  40. Compression mode : Lossy
  41. Stream size : 920 MiB (14%)
  42. Language : English
  43. Default : Yes
  44. Forced : No

  45. Menu
  46. 00:00:00.000 : en:00:00:00.000
  47. 00:13:54.917 : en:00:13:54.917
  48. 00:29:57.963 : en:00:29:57.963
  49. 00:42:03.604 : en:00:42:03.604
  50. 00:53:20.781 : en:00:53:20.781
  51. 01:02:25.325 : en:01:02:25.325
  52. 01:12:00.691 : en:01:12:00.691
  53. 01:20:12.349 : en:01:20:12.349
复制代码

疾速杀机资源下载:

疾速杀机 Acceleration.2019.1080p.BluRay.x264【6.54 GB】
疾速杀机 Acceleration.2019.1080p.BluRay.x264-GUACAMOLE.torrent (33.49 KB, 售价: 10 金币)
時光已泛黃。 发表于 2020-1-6 23:12 | 显示全部楼层
我的天,这院线资源速度也太快了吧
﹎從噺幵ㄝ台 发表于 2020-1-10 12:36 | 显示全部楼层
我的天,让我 惊讶到了,电影院还在上映呢
默念。 发表于 2020-1-28 15:57 来自 移动版  | 显示全部楼层
速度很快
稳重熟男 发表于 2020-1-31 06:52 来自 移动版  | 显示全部楼层
不亏是4k群,不知道我算不算入群了?
把你藏心里 发表于 2020-2-3 15:29 来自 移动版  | 显示全部楼层
6666,电影院刚上映4k群就you了!!
失掉方向 发表于 2020-2-5 01:57 来自 移动版  | 显示全部楼层
速度很快
我的未来我做主 发表于 2020-2-5 21:05 来自 移动版  | 显示全部楼层
这部电影国内还需要等几天才上映呢
热门电影
关闭

站长通知上一条 /1 下一条

Copyright   ©2015-2016  4k群  Powered by©Discuz!  技术支持:4K群