小怪物1080p高清电影下载

[复制链接]
朱古力小酥酥 发表于 2020-1-6 23:00 | 显示全部楼层 |阅读模式

导演: 亚伯·福赛斯
编剧: 亚伯·福赛斯
主演: 露皮塔·尼永奥 / 乔什·加德 / 亚历山大·英格兰 / Nadia Townsend / 斯蒂芬·皮科克 / Kat Stewart / M.J. Kokolis / Saskia Burmeister / Talayna Moana Nikora / Diesel La Torraca / 亨利·尼克松 / Marshall Napier / Hudson Brande / Lucia Pang / Rahel Romahn / 费利克斯·威廉森 / 艾娃·卡约菲丽斯 / 杰森·庄 / 克里斯蒂·布鲁克斯 / 山姆·弗雷泽 / 迈克尔·诺特
类型: 喜剧 / 恐怖
制片国家/地区: 英国 / 澳大利亚 / 美国
语言: 英语
上映日期: 2019-01-27(圣丹斯电影节) / 2019-10-05(伦敦电影节) / 2019-10-08(美国) / 2019-11-15(英国)
片长: 94分钟(圣丹斯电影节)
又名: 老师‧丧尸‧小BB(港) / 校外打怪教学(台) / 小怪兽

小怪物的剧情简介 · · · · · ·
  Dave 失戀喪志,終日躲在姐姐家中避世,湊外甥以療情傷。一天,Dave陪外甥參加幼稚園的學校旅行,遇上美女教師Caroline,單身Dave立即出盡渾身解數冧女,誰知旅行搞手Teddy卻老是常出現做電燈膽。更令Dave始料不及的是附近一個軍事基地實驗失敗,殺出一班喪屍空群而出襲地球。Dave、Caroline和Teddy手無寸鐵,還要帶著一班幼稚園學生,他們必須合力抵擋喪屍,保護稚子,力求全身而退。

小怪物资源信息:
  1. Video
  2. ID : 1
  3. Format : AVC
  4. Format/Info : Advanced Video Codec
  5. Format profile : High@L4.1
  6. Format settings : CABAC / 3 Ref Frames
  7. Format settings, CABAC : Yes
  8. Format settings, Reference frames : 3 frames
  9. Codec ID : V_MPEG4/ISO/AVC
  10. Duration : 1 h 33 min
  11. Bit rate mode : Variable
  12. Bit rate : 33.0 Mb/s
  13. Maximum bit rate : 37.0 Mb/s
  14. Width : 1 920 pixels
  15. Height : 1 080 pixels
  16. Display aspect ratio : 16:9
  17. Frame rate mode : Constant
  18. Frame rate : 23.976 (24000/1001) FPS
  19. Color space : YUV
  20. Chroma subsampling : 4:2:0
  21. Bit depth : 8 bits
  22. Scan type : Progressive
  23. Bits/(Pixel*Frame) : 0.664
  24. Stream size : 21.6 GiB (90%)
  25. Title : Little.Monsters.2019.1080p.BluRay.REMUX.AVC.DTS-HD.MA.5.1-FGT
  26. Language : English
  27. Default : No
  28. Forced : No

  29. Audio
  30. ID : 2
  31. Format : DTS XLL
  32. Format/Info : Digital Theater Systems
  33. Commercial name : DTS-HD Master Audio
  34. Codec ID : A_DTS
  35. Duration : 1 h 34 min
  36. Bit rate mode : Variable
  37. Bit rate : 3 684 kb/s
  38. Channel(s) : 6 channels
  39. Channel layout : C L R Ls Rs LFE
  40. Sampling rate : 48.0 kHz
  41. Frame rate : 93.750 FPS (512 SPF)
  42. Bit depth : 24 bits
  43. Compression mode : Lossless
  44. Stream size : 2.42 GiB (10%)
  45. Title : Little.Monsters.2019.1080p.BluRay.REMUX.AVC.DTS-HD.MA.5.1-FGT
  46. Language : English
  47. Default : Yes
  48. Forced : No

  49. Text
  50. ID : 3
  51. Format : UTF-8
  52. Codec ID : S_TEXT/UTF8
  53. Codec ID/Info : UTF-8 Plain Text
  54. Duration : 1 h 33 min
  55. Bit rate : 89 b/s
  56. Count of elements : 1820
  57. Stream size : 61.5 KiB (0%)
  58. Language : English
  59. Default : Yes
  60. Forced : No

  61. Menu
  62. 00:00:00.000 : en:Chapter 01
  63. 00:07:27.613 : en:Chapter 02
  64. 00:15:08.949 : en:Chapter 03
  65. 00:23:21.691 : en:Chapter 04
  66. 00:32:30.281 : en:Chapter 05
  67. 00:38:50.536 : en:Chapter 06
  68. 00:45:57.963 : en:Chapter 07
  69. 00:53:14.649 : en:Chapter 08
  70. 00:59:28.606 : en:Chapter 09
  71. 01:08:30.689 : en:Chapter 10
  72. 01:18:10.811 : en:Chapter 11
  73. 01:25:47.183 : en:Chapter 12
复制代码

小怪物资源下载:

小怪物 Little.Monsters.2019.1080p.BluRay.REMUX.AVC.DTS-HD.MA.5.1【24.07 GB】
小怪物 Little.Monsters.2019.1080p.BluRay.REMUX.AVC.DTS-HD.MA.5.1-FGT.torrent (60.72 KB, 售价: 10 金币)
__、凄凉′美 发表于 2020-1-7 00:03 来自 移动版  | 显示全部楼层
我的天,这院线资源速度也太快了吧
℡失而才惜° 发表于 2020-1-16 00:00 来自 移动版  | 显示全部楼层
速度很快
再見ろ、往事 发表于 2020-1-22 13:34 | 显示全部楼层
牛逼,每次都是最快更新院线电影,等待高清或者4k版本的
释怀的情绪ヽ 发表于 2020-1-28 11:35 | 显示全部楼层
很好,马上收藏4k群网站
巴黎夜雨 发表于 2020-1-29 19:41 | 显示全部楼层
6666,电影院刚上映4k群就you了!!
热门电影
关闭

站长通知上一条 /1 下一条

Copyright   ©2015-2016  4k群  Powered by©Discuz!  技术支持:4K群