[1080p资源] 去年圣诞1080p高清电影下载

[复制链接]
朱古力小酥酥 发表于 2020-1-9 22:05 | 显示全部楼层 |阅读模式

导演: 保罗·费格
编剧: 艾玛·汤普森 / 布里尼·金明斯 / 格雷·怀斯
主演: 艾米莉亚·克拉克 / 亨利·戈尔丁 / 杨紫琼 / 艾玛·汤普森 / 丽贝卡·鲁特 / 莉迪亚·伦纳德 / 海伦娜·福尔摩斯 / 纳西尔·贾玛 / 彼得·米金特 / 大卫·穆梅尼 / 里图·阿亚 / 卡罗尔·斯蒂尔 / 帕蒂·卢波恩
类型: 喜剧 / 爱情
制片国家/地区: 英国 / 美国
语言: 英语
上映日期: 2019-11-08(美国)
片长: 102分钟
又名: 去年圣诞节(台) / 旧年圣诞好恋嚟(港) / 爱在圣诞

去年圣诞的剧情简介 · · · · · ·
  一事无成的凯特(艾米莉亚·克拉克 Emilia Clarke 饰)在伦敦浑浑噩噩地过着日子,她做出的一连串糟糕决定导致厄运总是伴随着鞋子上发出的铃声如影随形地跟随着她,她只能打扮成圣诞老人的小精灵,在一间全年无休的圣诞饰品店当店员。当心地善良的汤姆(亨利·戈尔丁 Henry Golding 饰)闯入了凯特的生活,帮助她克服了许多障碍与难关,一切都似乎美好得有点不真实。伦敦在圣诞佳节期间转变成一座童话般的梦幻王国,这两个看似八竿子打不着的人能否结成良缘?有时候,你得顺其自然、聆听自己内心的声音……并且要拥有强大的信念。

去年圣诞资源信息:
  1. Video
  2. ID : 1
  3. Format : AVC
  4. Format/Info : Advanced Video Codec
  5. Format profile : High@L4.1
  6. Format settings : CABAC / 4 Ref Frames
  7. Format settings, CABAC : Yes
  8. Format settings, Reference frames : 4 frames
  9. Codec ID : avc1
  10. Codec ID/Info : Advanced Video Coding
  11. Duration : 1 h 37 min
  12. Bit rate : 4 500 kb/s
  13. Width : 1 920 pixels
  14. Height : 960 pixels
  15. Display aspect ratio : 2.000
  16. Frame rate mode : Constant
  17. Frame rate : 30.000 FPS
  18. Color space : YUV
  19. Chroma subsampling : 4:2:0
  20. Bit depth : 8 bits
  21. Scan type : Progressive
  22. Bits/(Pixel*Frame) : 0.081
  23. Stream size : 3.09 GiB (94%)
  24. Title : Last.Christmas.2019.1080p.KORSUB.HDRip.x264.AAC2.0-STUTTERSHIT
  25. Writing library : x264 core 148 r2748 97eaef2
  26. Encoding settings : cabac=1 / ref=4 / deblock=1:0:0 / analyse=0x3:0x113 / me=umh / subme=9 / psy=1 / psy_rd=1.00:0.00 / mixed_ref=1 / me_range=16 / chroma_me=1 / trellis=2 / 8x8dct=1 / cqm=0 / deadzone=21,11 / fast_pskip=1 / chroma_qp_offset=-2 / threads=72 / lookahead_threads=6 / sliced_threads=0 / nr=0 / decimate=1 / interlaced=0 / bluray_compat=0 / constrained_intra=0 / bframes=3 / b_pyramid=2 / b_adapt=2 / b_bias=0 / direct=3 / weightb=1 / open_gop=0 / weightp=2 / keyint=250 / keyint_min=25 / scenecut=40 / intra_refresh=0 / rc_lookahead=50 / rc=abr / mbtree=1 / bitrate=4500 / ratetol=1.0 / qcomp=0.60 / qpmin=0 / qpmax=69 / qpstep=4 / ip_ratio=1.40 / aq=1:1.00
  27. Codec configuration box : avcC

  28. Audio
  29. ID : 2
  30. Format : AAC LC
  31. Format/Info : Advanced Audio Codec Low Complexity
  32. Codec ID : mp4a-40-2
  33. Duration : 1 h 37 min
  34. Duration_LastFrame : -11 ms
  35. Bit rate mode : Constant
  36. Bit rate : 256 kb/s
  37. Channel(s) : 2 channels
  38. Channel layout : L R
  39. Sampling rate : 48.0 kHz
  40. Frame rate : 46.875 FPS (1024 SPF)
  41. Compression mode : Lossy
  42. Stream size : 179 MiB (5%)
  43. Title : Last.Christmas.2019.1080p.KORSUB.HDRip.x264.AAC2.0-STUTTERSHIT
  44. Language : English
  45. Default : Yes
  46. Alternate group : 1
复制代码

去年圣诞资源下载:

去年圣诞 Last.Christmas.2019.1080p.KORSUB.HDRip.x264.AAC2.0[3.27 GB]
去年圣诞 Last.Christmas.2019.1080p.KORSUB.HDRip.x264.AAC2.0-STUTTERSHIT.torrent (33.28 KB, 售价: 10 金币)
热门电影
关闭

站长通知上一条 /1 下一条

Copyright   ©2015-2016  4k群  Powered by©Discuz!  技术支持:4K群