[1080p资源] 掠夺者1080p高清电影下载

[复制链接]
朱古力小酥酥 发表于 2020-1-9 22:11 | 显示全部楼层 |阅读模式

导演: 斯蒂芬·斯达思 / 本吉·克莱曼
编剧: Scott Yacyshyn
主演: Mary Nepi / Gabrielle Elyse / 奥斯汀·法瑞伯格 / JJ Nolan / 尼克·戈麦斯 / 阿什丽·阿戈塔
类型: 喜剧 / 科幻 / 恐怖
制片国家/地区: 美国
语言: 英语
上映日期: 2019-03-10(西南偏南电影节)
片长: 93分钟

掠夺者的剧情简介 · · · · · ·
  Sara’s one of the cool kids… but she’s totally terrified of losing her status. She’d be a lot more secure if she could just win back her super-hot ex, Skyler, but he’s not interested unless they move to the next level. She decides to take the plunge — but something about Skyler changed on his summer trip to Mexico… something in his nards.Sara wakes the next morning only to find that she’s nine-months pregnant. Desperate to keep this under wraps, she turns to the only person she can trust: her nerdy ex-best friend, Hayley. But after a trip to the clinic results in Sara birthing something other-worldly, the girls realise their night is only just getting started…

掠夺者资源信息:
  1. Video
  2. ID : 1
  3. Format : AVC
  4. Format/Info : Advanced Video Codec
  5. Format profile : High@L4
  6. Format settings : CABAC / 4 Ref Frames
  7. Format settings, CABAC : Yes
  8. Format settings, Reference frames : 4 frames
  9. Codec ID : V_MPEG4/ISO/AVC
  10. Duration : 1 h 36 min
  11. Bit rate mode : Constant
  12. Bit rate : 6 337 kb/s
  13. Nominal bit rate : 10 000 kb/s
  14. Width : 1 920 pixels
  15. Height : 872 pixels
  16. Display aspect ratio : 2.2:1
  17. Original display aspect ratio : 2.2:1
  18. Frame rate mode : Constant
  19. Frame rate : 23.976 (24000/1001) FPS
  20. Color space : YUV
  21. Chroma subsampling : 4:2:0
  22. Bit depth : 8 bits
  23. Scan type : Progressive
  24. Bits/(Pixel*Frame) : 0.158
  25. Stream size : 4.29 GiB (91%)
  26. Default : Yes
  27. Forced : No
  28. Color range : Limited
  29. Color primaries : BT.709
  30. Transfer characteristics : BT.709
  31. Matrix coefficients : BT.709

  32. Audio
  33. ID : 2
  34. Format : E-AC-3
  35. Format/Info : Enhanced AC-3
  36. Commercial name : Dolby Digital Plus
  37. Codec ID : A_EAC3
  38. Duration : 1 h 36 min
  39. Bit rate mode : Constant
  40. Bit rate : 640 kb/s
  41. Channel(s) : 6 channels
  42. Channel layout : L R C LFE Ls Rs
  43. Sampling rate : 48.0 kHz
  44. Frame rate : 31.250 FPS (1536 SPF)
  45. Compression mode : Lossy
  46. Stream size : 443 MiB (9%)
  47. Language : English
  48. Service kind : Complete Main
  49. Default : Yes
  50. Forced : No

  51. Text #1
  52. ID : 3
  53. Format : UTF-8
  54. Codec ID : S_TEXT/UTF8
  55. Codec ID/Info : UTF-8 Plain Text
  56. Duration : 1 h 32 min
  57. Bit rate : 50 b/s
  58. Count of elements : 1201
  59. Stream size : 34.3 KiB (0%)
  60. Language : English
  61. Default : No
  62. Forced : No

  63. Text #2
  64. ID : 4
  65. Format : UTF-8
  66. Codec ID : S_TEXT/UTF8
  67. Codec ID/Info : UTF-8 Plain Text
  68. Duration : 1 h 36 min
  69. Bit rate : 54 b/s
  70. Count of elements : 1492
  71. Stream size : 38.6 KiB (0%)
  72. Title : SDH
  73. Language : English
  74. Default : No
  75. Forced : No
复制代码

掠夺者资源下载:

掠夺者 Snatchers.2019.1080p.AMZN.WEBRip.DDP5.1.x264【4.72 GB】
掠夺者 Snatchers.2019.1080p.AMZN.WEBRip.DDP5.1.x264-NTG.torrent (47.72 KB, 售价: 10 金币)
热门电影
关闭

站长通知上一条 /1 下一条

Copyright   ©2015-2016  4k群  Powered by©Discuz!  技术支持:4K群