[1080p资源] 白烂贱客2 1080p高清电影下载

[复制链接]
朱古力小酥酥 发表于 2020-1-9 22:15 | 显示全部楼层 |阅读模式

导演: 凯文·史密斯
编剧: 凯文·史密斯
主演: 凯文·史密斯 / 杰森·缪斯 / 本·阿弗莱克 / 马特·达蒙 / 克里斯·海姆斯沃斯 / 乔·曼根尼罗 / 罗莎里奥·道森 / 梅莉莎·班诺伊 / 格兰特·古斯汀 / 贾斯汀·朗 / 莎诺·伊丽莎白 / 乔伊·劳伦·亚当斯 / 杰森·李 / 凯特·米库奇 / 贾森·比格斯 / 哈莉·奎恩·史密斯 / 方·基默 / 大卫·达斯马齐连 / 詹姆斯·范德比克 / 戴德里克·巴德 / 汤姆·卡瓦纳夫 / 弗兰西斯·肖 / 约瑟夫·D·雷特曼 / 克雷格·罗宾森 / 莫莉·香侬 / 詹妮弗·斯沃巴奇·史密斯 / 马索·曼恩 / 杰夫·蔡斯 / 汤米·钟 / 卡洛斯·瓦尔德斯 / 阿帕娜·布雷尔 / 布莱恩·奥哈罗兰 / 拉尔夫·加曼 / 克里斯·杰里科 / 杰克·理查德森 / 莱德曼 / 唐尼尔·罗林斯 / 比利·斯洛特 / 爱丽丝·温 / Treshelle Edmond / Lex Lybrand / Eric Rhoades
类型: 喜剧
制片国家/地区: 美国
语言: 英语
上映日期: 2019-10-15(美国)
片长: 95分钟
又名: 白烂贱客重启 / 白烂贱客续集 / 杰与沉默鲍勃重启

白烂贱客2的剧情简介 · · · · · ·
  The story finds Jason Mewes' Jay and Smith's Silent Bob learning that a studio wants to reboot the Bluntman And Chronic movie that was based on the comic inspired by the two stoners. And they're not happy. Again. So begins a cross-country quest to shut it down.

白烂贱客2 资源信息:
  1. Video
  2. ID : 1
  3. Format : AVC
  4. Format/Info : Advanced Video Codec
  5. Format profile : High@L4.1
  6. Format settings : CABAC / 5 Ref Frames
  7. Format settings, CABAC : Yes
  8. Format settings, Reference frames : 5 frames
  9. Codec ID : V_MPEG4/ISO/AVC
  10. Duration : 1 h 45 min
  11. Bit rate : 8 884 kb/s
  12. Width : 1 920 pixels
  13. Height : 808 pixels
  14. Display aspect ratio : 2.40:1
  15. Frame rate mode : Constant
  16. Frame rate : 23.976 (24000/1001) FPS
  17. Color space : YUV
  18. Chroma subsampling : 4:2:0
  19. Bit depth : 8 bits
  20. Scan type : Progressive
  21. Bits/(Pixel*Frame) : 0.239
  22. Stream size : 6.53 GiB (85%)
  23. Title : Jay.and.Silent.Bob.Reboot.2019.1080p.BluRay.x264-AAA
  24. Writing library : x264 core 157 r2969 d4099dd
  25. Encoding settings : cabac=1 / ref=5 / deblock=1:0:0 / analyse=0x3:0x113 / me=umh / subme=8 / psy=1 / psy_rd=1.00:0.00 / mixed_ref=1 / me_range=16 / chroma_me=1 / trellis=1 / 8x8dct=1 / cqm=0 / deadzone=21,11 / fast_pskip=1 / chroma_qp_offset=-2 / threads=16 / lookahead_threads=2 / sliced_threads=0 / nr=0 / decimate=1 / interlaced=0 / bluray_compat=0 / constrained_intra=0 / bframes=3 / b_pyramid=2 / b_adapt=2 / b_bias=0 / direct=3 / weightb=1 / open_gop=0 / weightp=2 / keyint=240 / keyint_min=23 / scenecut=40 / intra_refresh=0 / rc_lookahead=50 / rc=2pass / mbtree=1 / bitrate=8884 / ratetol=1.0 / qcomp=0.60 / qpmin=0 / qpmax=69 / qpstep=4 / cplxblur=20.0 / qblur=0.5 / ip_ratio=1.40 / aq=1:1.00
  26. Default : Yes
  27. Forced : No

  28. Audio
  29. ID : 2
  30. Format : DTS
  31. Format/Info : Digital Theater Systems
  32. Codec ID : A_DTS
  33. Duration : 1 h 45 min
  34. Bit rate mode : Constant
  35. Bit rate : 1 509 kb/s
  36. Channel(s) : 6 channels
  37. Channel layout : C L R Ls Rs LFE
  38. Sampling rate : 48.0 kHz
  39. Frame rate : 93.750 FPS (512 SPF)
  40. Bit depth : 24 bits
  41. Compression mode : Lossy
  42. Stream size : 1.11 GiB (15%)
  43. Title : English Digital Theater Systems (DTS)
  44. Language : English
  45. Default : Yes
  46. Forced : No

  47. Menu
  48. 00:00:00.000 : :Chapter 01
  49. 00:03:38.677 : :Chapter 02
  50. 00:09:30.653 : :Chapter 03
  51. 00:16:32.658 : :Chapter 04
  52. 00:24:10.324 : :Chapter 05
  53. 00:30:43.633 : :Chapter 06
  54. 00:40:34.015 : :Chapter 07
  55. 00:44:53.941 : :Chapter 08
  56. 00:48:46.715 : :Chapter 09
  57. 00:54:34.021 : :Chapter 10
  58. 00:59:26.730 : :Chapter 11
  59. 01:07:03.227 : :Chapter 12
  60. 01:10:01.906 : :Chapter 13
  61. 01:16:08.480 : :Chapter 14
  62. 01:25:37.215 : :Chapter 15
  63. 01:32:39.345 : :Chapter 16
复制代码

白烂贱客2资源下载:

白烂贱客2 Jay.and.Silent.Bob.Reboot.2019.1080p.BluRay.x264【7.65 GB】
白烂贱客2 Jay.and.Silent.Bob.Reboot.2019.1080p.BluRay.x264-AAA.torrent (38.89 KB, 售价: 10 金币)
热门电影
关闭

站长通知上一条 /1 下一条

Copyright   ©2015-2016  4k群  Powered by©Discuz!  技术支持:4K群