[1080p资源] 倒忌时1080p高清电影下载

[复制链接]
朱古力小酥酥 发表于 2020-1-9 22:27 | 显示全部楼层 |阅读模式

导演: 贾斯汀·戴克
编剧: 贾斯汀·戴克
主演: 伊丽莎白·莱尔 / 乔丹·考维 / 特丽莎·贝特曼 / 彼得·费辛利 / 蒂琪娜·阿诺 / 汤姆·赛格拉 / 拉娜·麦基萨克 / 安妮·文特斯 / 马特·莱斯切尔 / P·J·伯恩 / 维勒特·罗德里格斯 / 查利·麦克德莫特 / 布瑞特·伦茨勒 / 安德利娅·安德斯 / 威洛·黑尔 / 马里亚诺·门多萨 / 奥斯汀·扎祖尔
类型: 惊悚 / 恐怖
制片国家/地区: 美国
语言: 英语
上映日期: 2019-10-25(美国)
片长: 90分钟
又名: 索命倒数(港) / 倒数计死(台) / 死期倒计时 / 倒计时

倒忌时的剧情简介 · · · · · ·
  当一名护士下载一个声称可以预测一个人死亡时间的应用时,它告诉她,她仅剩三天的生命。 随着时间的流逝、未知的某人/物阴魂不散,她必须在时间耗尽之前找到一种方法来自救。

倒忌时资源信息:
  1. Video
  2. ID : 1
  3. Format : AVC
  4. Format/Info : Advanced Video Codec
  5. Format profile : High@L4.1
  6. Format settings : CABAC / 5 Ref Frames
  7. Format settings, CABAC : Yes
  8. Format settings, Reference frames : 5 frames
  9. Codec ID : V_MPEG4/ISO/AVC
  10. Duration : 1 h 30 min
  11. Bit rate : 8 838 kb/s
  12. Width : 1 920 pixels
  13. Height : 808 pixels
  14. Display aspect ratio : 2.40:1
  15. Frame rate mode : Constant
  16. Frame rate : 23.976 (24000/1001) FPS
  17. Color space : YUV
  18. Chroma subsampling : 4:2:0
  19. Bit depth : 8 bits
  20. Scan type : Progressive
  21. Bits/(Pixel*Frame) : 0.238
  22. Stream size : 5.59 GiB (85%)
  23. Title : Countdown.2019.1080p.BluRay.x264-AAA
  24. Writing library : x264 core 157 r2969 d4099dd
  25. Encoding settings : cabac=1 / ref=5 / deblock=1:0:0 / analyse=0x3:0x113 / me=umh / subme=8 / psy=1 / psy_rd=1.00:0.00 / mixed_ref=1 / me_range=16 / chroma_me=1 / trellis=1 / 8x8dct=1 / cqm=0 / deadzone=21,11 / fast_pskip=1 / chroma_qp_offset=-2 / threads=16 / lookahead_threads=2 / sliced_threads=0 / nr=0 / decimate=1 / interlaced=0 / bluray_compat=0 / constrained_intra=0 / bframes=3 / b_pyramid=2 / b_adapt=2 / b_bias=0 / direct=3 / weightb=1 / open_gop=0 / weightp=2 / keyint=240 / keyint_min=23 / scenecut=40 / intra_refresh=0 / rc_lookahead=50 / rc=2pass / mbtree=1 / bitrate=8838 / ratetol=1.0 / qcomp=0.60 / qpmin=0 / qpmax=69 / qpstep=4 / cplxblur=20.0 / qblur=0.5 / ip_ratio=1.40 / aq=1:1.00
  26. Default : Yes
  27. Forced : No

  28. Audio
  29. ID : 2
  30. Format : DTS
  31. Format/Info : Digital Theater Systems
  32. Codec ID : A_DTS
  33. Duration : 1 h 30 min
  34. Bit rate mode : Constant
  35. Bit rate : 1 509 kb/s
  36. Channel(s) : 6 channels
  37. Channel layout : C L R Ls Rs LFE
  38. Sampling rate : 48.0 kHz
  39. Frame rate : 93.750 FPS (512 SPF)
  40. Bit depth : 24 bits
  41. Compression mode : Lossy
  42. Stream size : 979 MiB (15%)
  43. Title : English Digital Theater Systems (DTS)
  44. Language : English
  45. Default : Yes
  46. Forced : No

  47. Menu
  48. 00:00:00.000 : :Chapter 01
  49. 00:03:14.694 : :Chapter 02
  50. 00:08:07.028 : :Chapter 03
  51. 00:14:14.937 : :Chapter 04
  52. 00:18:02.999 : :Chapter 05
  53. 00:24:23.462 : :Chapter 06
  54. 00:31:47.989 : :Chapter 07
  55. 00:35:37.552 : :Chapter 08
  56. 00:39:21.943 : :Chapter 09
  57. 00:44:15.736 : :Chapter 10
  58. 00:47:26.177 : :Chapter 11
  59. 00:50:52.925 : :Chapter 12
  60. 00:55:49.304 : :Chapter 13
  61. 00:59:32.027 : :Chapter 14
  62. 01:07:01.059 : :Chapter 15
  63. 01:09:26.496 : :Chapter 16
  64. 01:15:02.456 : :Chapter 17
  65. 01:20:53.891 : :Chapter 18
  66. 01:22:54.261 : :Chapter 19
  67. 01:24:05.165 : :Chapter 20
复制代码

倒忌时资源下载:

倒忌时 Countdown.2019.1080p.BluRay.x264【6.55 GB】
倒忌时 Countdown.2019.1080p.BluRay.x264-AAA.torrent (33.42 KB, 售价: 10 金币)
热门电影
关闭

站长通知上一条 /1 下一条

Copyright   ©2015-2016  4k群  Powered by©Discuz!  技术支持:4K群