[1080p资源] 星之彩1080p高清电影下载

[复制链接]
朱古力小酥酥 发表于 2020-1-20 09:23 | 显示全部楼层 |阅读模式

导演: 理查德·斯坦利
编剧: 理查德·斯坦利 / H·P·洛夫克拉夫特 / Scarlett Amaris
主演: 尼古拉斯·凯奇 / 考莉安卡·基尔彻 / 乔莉·理查德森 / 汤米·钟 / 玛德琳娜·亚瑟 / 朱利安·希威德 / 艾略特·奈特 / 布雷丹·梅耶尔 / Brett W. Bachman / Melissa Nearman
类型: 科幻 / 恐怖
制片国家/地区: 葡萄牙 / 美国 / 马来西亚
语言: 英语
上映日期: 2019-09-07(多伦多国际电影节) / 2020-01-24(美国)
片长: 111分钟
又名: 时空之外的颜色

星之彩的剧情简介 · · · · · ·
  一颗流光溢彩的太空陨石径直坠入新英格兰偏远庄园后,邪恶势力开始暗暗渗透静居于此的加德纳一家。不知不觉中,时间开始膨胀,自然逐渐呈现超凡脱俗的异世色调,而所有鲜亮美丽之物则受其影响纷纷异变腐败。
  本片由南非影人理查德·斯坦利执导,与斯嘉丽·阿马里斯合作改编自H·P·洛夫克拉夫特1927年同名短篇小说《异星之彩/流星溢彩(The Colour Out of Space)》,并由奥斯卡影帝尼古拉斯·凯奇领衔主演。

星之彩资源信息:
  1. Video
  2. ID : 1
  3. Format : AVC
  4. Format/Info : Advanced Video Codec
  5. Format profile : Main@L4
  6. Format settings : CABAC / 3 Ref Frames
  7. Format settings, CABAC : Yes
  8. Format settings, Reference frames : 3 frames
  9. Codec ID : avc1
  10. Codec ID/Info : Advanced Video Coding
  11. Duration : 1 h 50 min
  12. Bit rate mode : Constant
  13. Bit rate : 3 500 kb/s
  14. Width : 1 920 pixels
  15. Height : 1 080 pixels
  16. Display aspect ratio : 16:9
  17. Frame rate mode : Variable
  18. Frame rate : 23.976 (23976/1000) FPS
  19. Minimum frame rate : 15.422 FPS
  20. Maximum frame rate : 24.000 FPS
  21. Original frame rate : 24.000 FPS
  22. Color space : YUV
  23. Chroma subsampling : 4:2:0
  24. Bit depth : 8 bits
  25. Scan type : Progressive
  26. Bits/(Pixel*Frame) : 0.070
  27. Stream size : 2.69 GiB (96%)
  28. Color range : Limited
  29. Color primaries : BT.709
  30. Transfer characteristics : BT.709
  31. Matrix coefficients : BT.709
  32. Codec configuration box : avcC

  33. Audio
  34. ID : 2
  35. Format : AAC LC
  36. Format/Info : Advanced Audio Codec Low Complexity
  37. Codec ID : mp4a-40-2
  38. Duration : 1 h 50 min
  39. Bit rate mode : Constant
  40. Bit rate : 157 kb/s
  41. Channel(s) : 2 channels
  42. Channel layout : L R
  43. Sampling rate : 44.1 kHz
  44. Frame rate : 43.066 FPS (1024 SPF)
  45. Compression mode : Lossy
  46. Stream size : 124 MiB (4%)
  47. Language : English
  48. Default : Yes
  49. Alternate group : 1
复制代码

星之彩资源下载:

星之彩 Color.Out.of.Space.2019.1080p.SCREENER.x264【2.82 GB】
星之彩 Color.Out.of.Space.2019.1080p.SCREENER.x264-TOPKEK.torrent (28.69 KB, 售价: 10 金币)
热门电影
关闭

站长通知上一条 /1 下一条

Copyright   ©2015-2016  4k群  Powered by©Discuz!  技术支持:4K群