[1080p资源] 超人:红色之子1080p高清电影下载

[复制链接]
朱古力小酥酥 发表于 2020-2-26 14:19 | 显示全部楼层 |阅读模式
超人:红色之子.jpg
导演: 刘山姆
编剧: J·M·德马泰 / 马克·米勒
主演: 詹森·艾萨克 / 艾米·阿克 / 戴德里克·巴德 / 保罗·威廉姆斯 / 菲尔·拉马 / 罗杰·克莱格·史密斯 / 萨沙·罗伊茨 / 特拉维斯·威林厄姆 / 雯特·艾娃·佐莉 / 菲尔·莫里斯 / 瓦内萨·马歇尔 / 吉姆·麦司奇门 / 威廉·赛莱耶
类型: 动画
制片国家/地区: 美国
语言: 英语
上映日期: 2020-02-25(美国)
片长: 84分钟
又名: 超人:赤子

超人:红色之子的剧情简介 · · · · · ·
  红子动画真的来了,经典DC漫画《超人:红色之子》动画版发布首张剧照,苏联超人亮相。
  杰森·伊萨克斯(《蝙蝠侠:红影迷踪》)配音超人,“根妹”艾米·阿克配音路易斯·莱恩,戴德里克·巴德配音莱克斯·卢瑟,瓦内萨·马歇尔配音神奇女侠,罗杰·克莱格·史密斯配音蝙蝠侠。
  《红子》由刘山姆(《超人之死》《超人王朝》)执导,将于明年第一季发碟和登陆数字平台。漫画来自马克·米拉,提出:如果超人不是降落在美国小镇,而是在乌克兰,长大成为了苏联领导人,胸前的S变成镰刀和锤子,他和世界会是怎样?对社会主义、资本主义、历史和人性的探讨相当有意思。

超人:红色之子资源信息
  1. Video
  2. ID : 1
  3. Format : AVC
  4. Format/Info : Advanced Video Codec
  5. Format profile : High@L4
  6. Format settings : CABAC / 2 Ref Frames
  7. Format settings, CABAC : Yes
  8. Format settings, Reference frames : 2 frames
  9. Codec ID : V_MPEG4/ISO/AVC
  10. Duration : 1 h 25 min
  11. Bit rate : 7 821 kb/s
  12. Width : 1 920 pixels
  13. Height : 1 080 pixels
  14. Display aspect ratio : 16:9
  15. Frame rate mode : Constant
  16. Frame rate : 23.976 (24000/1001) FPS
  17. Color space : YUV
  18. Chroma subsampling : 4:2:0
  19. Bit depth : 8 bits
  20. Scan type : Progressive
  21. Bits/(Pixel*Frame) : 0.157
  22. Stream size : 4.65 GiB (95%)
  23. Writing library : x264 core 155 r2901 7d0ff22
  24. Default : Yes
  25. Forced : No
  26. Color range : Limited
  27. Color primaries : BT.709
  28. Transfer characteristics : BT.709
  29. Matrix coefficients : BT.709

  30. Audio
  31. ID : 2
  32. Format : AC-3
  33. Format/Info : Audio Coding 3
  34. Commercial name : Dolby Digital
  35. Codec ID : A_AC3
  36. Duration : 1 h 25 min
  37. Bit rate mode : Constant
  38. Bit rate : 384 kb/s
  39. Channel(s) : 6 channels
  40. Channel layout : L R C LFE Ls Rs
  41. Sampling rate : 48.0 kHz
  42. Frame rate : 31.250 FPS (1536 SPF)
  43. Bit depth : 16 bits
  44. Compression mode : Lossy
  45. Stream size : 234 MiB (5%)
  46. Title : English
  47. Language : English
  48. Service kind : Complete Main
  49. Default : No
  50. Forced : No

  51. Text
  52. ID : 3
  53. Format : UTF-8
  54. Codec ID : S_TEXT/UTF8
  55. Codec ID/Info : UTF-8 Plain Text
  56. Duration : 1 h 20 min
  57. Bit rate : 57 b/s
  58. Count of elements : 1070
  59. Stream size : 34.1 KiB (0%)
  60. Title : English
  61. Language : English
  62. Default : Yes
  63. Forced : No
复制代码

超人:红色之子资源下载
超人:红色之子 Superman.Red.Son.2020.1080p.WEBRip.DD5.1.x264【4.88 GB】
超人:红色之子 Superman.Red.Son.2020.1080p.WEBRip.DD5.1.x264-CM.torrent (49.31 KB, 售价: 10 金币)
热门电影
关闭

站长通知上一条 /1 下一条

Copyright   ©2015-2016  4k群  Powered by©Discuz!  技术支持:4K群