[1080p资源] 父亲的遗愿1080p高清电影下载

[复制链接]
朱古力小酥酥 发表于 2020-2-26 14:22 | 显示全部楼层 |阅读模式
父亲的遗愿.jpg
导演: 迪·里斯
编剧: 迪·里斯 / 琼·迪丹 / Marco Villalobos
主演: 安妮·海瑟薇 / 本·阿弗莱克 / 威廉·达福 / 梅尔·罗德里格斯 / 托比·琼斯 / 罗茜·佩雷兹 / 艾迪·盖瑟吉 / 阿娜塔·阿普洛 / 劳拉·尼米 / 戴维瓦蒂姆 / 卡洛斯·李尔 / 布赖恩·泰斯特 / 瑞奇·韦恩 / 米莉鲁佩托 / 亚当·霍斯 / 奥马尔·克鲁兹·索托 / 路易斯·O·罗萨多 / 伊万·J·托雷斯·拉桑塔 / Bill Kelly / Glenn Cutler / Steve Heinz
类型: 剧情 / 悬疑 / 惊悚 / 犯罪
制片国家/地区: 美国
语言: 英语
上映日期: 2020-01-27(圣丹斯电影节) / 2020-02-21(美国网络)
片长: 115分钟
又名: 遗愿 / 他的最后愿望 / 他最后想要的东西

父亲的遗愿的剧情简介 · · · · · ·
  安妮·海瑟薇商谈参演[他最后想要的东西](The Last Thing He Wanted,暂译)。该片根据琼·迪迪恩1996年同名小说改编,迪·里斯([泥土之界])执导。影片故事讲述一位名叫埃琳娜•麦克马宏的记者放弃对1984年总统竞选活动的报道,而为了实现父亲的意愿,她决定报道伊朗毒品交易的新闻。本片已进入前期制作

父亲的遗愿资源信息
  1. Video
  2. ID : 1
  3. Format : AVC
  4. Format/Info : Advanced Video Codec
  5. Format profile : Main@L4
  6. Format settings : CABAC / 3 Ref Frames
  7. Format settings, CABAC : Yes
  8. Format settings, Reference frames : 3 frames
  9. Codec ID : V_MPEG4/ISO/AVC
  10. Duration : 1 h 55 min
  11. Bit rate mode : Variable
  12. Bit rate : 4 220 kb/s
  13. Maximum bit rate : 6 330 kb/s
  14. Width : 1 920 pixels
  15. Height : 1 080 pixels
  16. Display aspect ratio : 16:9
  17. Frame rate mode : Constant
  18. Frame rate : 24.000 FPS
  19. Color space : YUV
  20. Chroma subsampling : 4:2:0
  21. Bit depth : 8 bits
  22. Scan type : Progressive
  23. Bits/(Pixel*Frame) : 0.085
  24. Stream size : 3.33 GiB (86%)
  25. Writing library : x264 core 148 r2715 7e75228
  26. Encoding settings : cabac=1 / ref=3 / deblock=1:0:0 / analyse=0x1:0x111 / me=umh / subme=10 / psy=1 / psy_rd=1.00:0.00 / mixed_ref=1 / me_range=24 / chroma_me=1 / trellis=2 / 8x8dct=0 / cqm=0 / deadzone=21,11 / fast_pskip=1 / chroma_qp_offset=-2 / threads=8 / lookahead_threads=1 / sliced_threads=0 / nr=0 / decimate=1 / interlaced=0 / bluray_compat=0 / stitchable=1 / constrained_intra=0 / bframes=2 / b_pyramid=0 / b_adapt=2 / b_bias=0 / direct=3 / weightb=1 / open_gop=0 / weightp=2 / keyint=250 / keyint_min=24 / scenecut=0 / intra_refresh=0 / rc_lookahead=48 / rc=2pass / mbtree=1 / bitrate=4220 / ratetol=1.0 / qcomp=0.50 / qpmin=6 / qpmax=51 / qpstep=4 / cplxblur=20.0 / qblur=0.5 / vbv_maxrate=6330 / vbv_bufsize=8440 / nal_hrd=vbr / filler=0 / ip_ratio=1.40 / aq=1:1.00
  27. Default : Yes
  28. Forced : No

  29. Audio
  30. ID : 2
  31. Format : E-AC-3
  32. Format/Info : Enhanced AC-3
  33. Commercial name : Dolby Digital Plus
  34. Codec ID : A_EAC3
  35. Duration : 1 h 55 min
  36. Bit rate mode : Constant
  37. Bit rate : 640 kb/s
  38. Channel(s) : 6 channels
  39. Channel layout : L R C LFE Ls Rs
  40. Sampling rate : 48.0 kHz
  41. Frame rate : 31.250 FPS (1536 SPF)
  42. Compression mode : Lossy
  43. Stream size : 530 MiB (13%)
  44. Title : English
  45. Language : English
  46. Service kind : Complete Main
  47. Default : Yes
  48. Forced : No

  49. Text #1
  50. ID : 3
  51. Format : UTF-8
  52. Codec ID : S_TEXT/UTF8
  53. Codec ID/Info : UTF-8 Plain Text
  54. Duration : 1 min 16 s
  55. Bit rate : 62 b/s
  56. Count of elements : 18
  57. Stream size : 595 Bytes (0%)
  58. Title : Forced
  59. Language : English
  60. Default : Yes
  61. Forced : Yes
复制代码

父亲的遗愿资源下载
父亲的遗愿 The.Last.Thing.He.Wanted.2020.1080p.NF.WEBRip.DDP5.1.x264【3.86 GB】
父亲的遗愿 The.Last.Thing.He.Wanted.2020.1080p.NF.WEBRip.DDP5.1.x264-NTG.torrent (39.12 KB, 售价: 10 金币)
热门电影
关闭

站长通知上一条 /1 下一条

Copyright   ©2015-2016  4k群  Powered by©Discuz!  技术支持:4K群