[1080p资源] 逃离比勒陀利亚1080p高清电影下载

[复制链接]
朱古力小酥酥 发表于 2020-3-12 08:47 | 显示全部楼层 |阅读模式
逃离比勒陀利亚.jpg
导演: Francis Annan
编剧: Francis Annan / L.H. Adams / Karol Griffiths / Tim Jenkin
主演: 丹尼尔·雷德克里夫 / 伊恩·哈特 / 丹尼尔·韦伯 / 内森·佩吉 / 斯蒂芬·亨特 / 马克·伦纳德·温特 / 珍妮特·克罗宁 / Ratidzo Mambo / Martin Ayles / David Wilson / Adam Ovadia / PJ Oaten / Lliam Amor / Paul Harvey / Lenny Firth
类型: 剧情 / 惊悚 / 犯罪
制片国家/地区: 英国 / 澳大利亚
语言: 英语
上映日期: 2020-03-06(英国)
片长: 106分钟

逃离比勒陀利亚的剧情简介 · · · · · ·
  丹尼尔·雷德克里夫将出演由Francis Annan自编自导的新片[逃离比勒陀利亚](Escape From Pretoria,暂译)。电影根据真实事件改编。丹尼尔将扮演蒂姆·詹金,是两名南非白人中的一员。他们1978年因为参加非洲人民大会秘密反种族隔离行动而被视为恐怖分子并入狱,并策划越狱活动。

逃离比勒陀利亚资源信息:
  1. Video
  2. ID : 1
  3. Format : AVC
  4. Format/Info : Advanced Video Codec
  5. Format profile : High@L4
  6. Format settings : CABAC / 5 Ref Frames
  7. Format settings, CABAC : Yes
  8. Format settings, Reference frames : 5 frames
  9. Codec ID : V_MPEG4/ISO/AVC
  10. Duration : 1 h 46 min
  11. Bit rate : 4 528 kb/s
  12. Width : 1 920 pixels
  13. Height : 802 pixels
  14. Display aspect ratio : 2.40:1
  15. Frame rate mode : Constant
  16. Frame rate : 23.976 (24000/1001) FPS
  17. Color space : YUV
  18. Chroma subsampling : 4:2:0
  19. Bit depth : 8 bits
  20. Scan type : Progressive
  21. Bits/(Pixel*Frame) : 0.123
  22. Stream size : 3.36 GiB (92%)
  23. Title : Escape from Pretoria.2020.1080p.WEB-DL.DD5.1.H264-FGT
  24. Language : English
  25. Default : Yes
  26. Forced : No
  27. Color range : Limited
  28. Color primaries : BT.709
  29. Transfer characteristics : BT.709
  30. Matrix coefficients : BT.709

  31. Audio
  32. ID : 2
  33. Format : AC-3
  34. Format/Info : Audio Coding 3
  35. Commercial name : Dolby Digital
  36. Codec ID : A_AC3
  37. Duration : 1 h 46 min
  38. Bit rate mode : Constant
  39. Bit rate : 384 kb/s
  40. Channel(s) : 6 channels
  41. Channel layout : L R C LFE Ls Rs
  42. Sampling rate : 48.0 kHz
  43. Frame rate : 31.250 FPS (1536 SPF)
  44. Bit depth : 16 bits
  45. Compression mode : Lossy
  46. Stream size : 292 MiB (8%)
  47. Title : Escape from Pretoria.2020.1080p.WEB-DL.DD5.1.H264-FGT
  48. Language : English
  49. Service kind : Complete Main
  50. Default : Yes
  51. Forced : No

  52. Text
  53. ID : 3
  54. Format : UTF-8
  55. Codec ID : S_TEXT/UTF8
  56. Codec ID/Info : UTF-8 Plain Text
  57. Duration : 1 min 28 s
  58. Bit rate : 54 b/s
  59. Count of elements : 26
  60. Stream size : 603 Bytes (0%)
  61. Language : English
  62. Default : Yes
  63. Forced : Yes

  64. Menu
  65. 00:00:00.000 : en:Chapter 1
  66. 00:08:30.051 : en:Chapter 2
  67. 00:17:24.794 : en:Chapter 3
  68. 00:26:36.804 : en:Chapter 4
  69. 00:36:27.394 : en:Chapter 5
  70. 00:46:45.761 : en:Chapter 6
  71. 00:55:54.976 : en:Chapter 7
  72. 01:06:30.068 : en:Chapter 8
  73. 01:18:47.138 : en:Chapter 9
  74. 01:29:49.257 : en:Chapter 10
  75. 01:41:08.184 : en:Chapter 11
复制代码


逃离比勒陀利亚资源下载:
逃离比勒陀利亚 Escape.from.Pretoria.2020.1080p.WEB-DL.DD5.1.H264【3.64 GB】
逃离比勒陀利亚 Escape.from.Pretoria.2020.1080p.WEB-DL.DD5.1.H264-FGT.torrent (36.97 KB, 售价: 10 金币)
热门电影
关闭

站长通知上一条 /1 下一条

Copyright   ©2015-2016  4k群  Powered by©Discuz!  技术支持:4K群