[1080p资源] 斯宾塞的机密任务1080p高清电影下载

[复制链接]
朱古力小酥酥 发表于 2020-3-12 08:52 | 显示全部楼层 |阅读模式
斯宾塞的机密任务.jpg
导演: 彼得·博格
编剧: 布莱恩·海尔格兰德 / 肖恩·欧奇夫 / 罗伯特·B·帕克 / 艾斯·阿特金斯
主演: 马克·沃尔伯格 / 艾伦·阿金 / 考林·加普 / 博基姆·伍德拜因 / 温斯顿·杜克 / 埃莱扎·施莱辛格 / 迈克尔·加斯顿 / 马克·马龙 / 凯茜·温图拉 / 詹姆斯·杜蒙特 / 杰米·加扎里安 / 汉斯·马雷罗 / 亚历山德拉·维诺 / 托马斯·马里亚诺 / 莱克西·罗斯 / 多梅尼克·阿尔迪诺 / 阿德里安·M·蒙波因特 / 兰迪·冈萨雷斯 / 博·克利里 / Post Malone / 罗丝玛丽·霍华德 / Leah Procito / Hope Olaide Wilson / 比利·康查 / 吉莉安·泰勒 / 妮可·杰森 / 阿尔弗雷德·布里埃
类型: 剧情 / 悬疑 / 惊悚 / 犯罪
制片国家/地区: 美国
语言: 英语
上映日期: 2020-03-06(美国)
片长: 110分钟
又名: 隐侠:地下正义(港) / 史宾赛的机密任务(台) / 斯潘瑟机密 / 仙境 / 奇特之地 / Wonderland

斯宾塞的机密任务的剧情简介 · · · · · ·
  这是沃尔伯格和导演彼得·博格自《孤独的幸存者》《恐袭波士顿》《深海浩劫》《22英里》后第五度,合作基于罗伯特·B·派克所著同名小说,派克死后由Ace Atkins接手创作,也是以男主角Spenser为中心的八本系列悬疑小说中的一本。Netflix已经和派克遗产方面达成协议,基于Spenser这一角色打造一系列电影。
  本片将有别于小说,小说讲述Spenser从一个满嘴俏皮话的拳击手变为波士顿的一名私家侦探,电影从Spenser出狱开始讲起,他被剥夺了私人侦探执照,当他揭露了一个耸人听闻的谋杀案和背后阴谋的真相时,他又被拉回了波士顿的黑暗犯罪世界中。尼尔·莫瑞兹(《速度与激情》系列 《越狱》)制片, Sean O’Keefe编写剧本。

斯宾塞的机密任务资源信息:
  1. Video
  2. ID : 1
  3. Format : AVC
  4. Format/Info : Advanced Video Codec
  5. Format profile : Main@L4
  6. Format settings : CABAC / 3 Ref Frames
  7. Format settings, CABAC : Yes
  8. Format settings, Reference frames : 3 frames
  9. Codec ID : V_MPEG4/ISO/AVC
  10. Duration : 1 h 51 min
  11. Bit rate mode : Variable
  12. Bit rate : 5 110 kb/s
  13. Maximum bit rate : 7 665 kb/s
  14. Width : 1 920 pixels
  15. Height : 1 080 pixels
  16. Display aspect ratio : 16:9
  17. Frame rate mode : Constant
  18. Frame rate : 24.000 FPS
  19. Color space : YUV
  20. Chroma subsampling : 4:2:0
  21. Bit depth : 8 bits
  22. Scan type : Progressive
  23. Bits/(Pixel*Frame) : 0.103
  24. Stream size : 3.93 GiB (87%)
  25. Writing library : x264 core 148 r2717 0d2410d
  26. Encoding settings : cabac=1 / ref=3 / deblock=1:0:0 / analyse=0x1:0x111 / me=umh / subme=10 / psy=1 / psy_rd=1.00:0.00 / mixed_ref=1 / me_range=24 / chroma_me=1 / trellis=2 / 8x8dct=0 / cqm=0 / deadzone=21,11 / fast_pskip=1 / chroma_qp_offset=-2 / threads=8 / lookahead_threads=1 / sliced_threads=0 / nr=0 / decimate=1 / interlaced=0 / bluray_compat=0 / stitchable=1 / constrained_intra=0 / bframes=2 / b_pyramid=0 / b_adapt=2 / b_bias=0 / direct=3 / weightb=1 / open_gop=0 / weightp=2 / keyint=250 / keyint_min=24 / scenecut=0 / intra_refresh=0 / rc_lookahead=48 / rc=2pass / mbtree=1 / bitrate=5110 / ratetol=1.0 / qcomp=0.50 / qpmin=6 / qpmax=51 / qpstep=4 / cplxblur=20.0 / qblur=0.5 / vbv_maxrate=7665 / vbv_bufsize=10220 / nal_hrd=vbr / filler=0 / ip_ratio=1.40 / aq=1:1.00
  27. Default : Yes
  28. Forced : No

  29. Audio
  30. ID : 2
  31. Format : E-AC-3 JOC
  32. Format/Info : Enhanced AC-3 with Joint Object Coding
  33. Commercial name : Dolby Digital Plus with Dolby Atmos
  34. Codec ID : A_EAC3
  35. Duration : 1 h 51 min
  36. Bit rate mode : Constant
  37. Bit rate : 768 kb/s
  38. Channel(s) : 6 channels
  39. Channel layout : L R C LFE Ls Rs
  40. Sampling rate : 48.0 kHz
  41. Frame rate : 31.250 FPS (1536 SPF)
  42. Compression mode : Lossy
  43. Stream size : 611 MiB (13%)
  44. Title : English
  45. Language : English
  46. Service kind : Complete Main
  47. Default : Yes
  48. Forced : No
  49. Complexity index : 16
  50. Number of dynamic objects : 15
  51. Bed channel count : 1 channel
  52. Bed channel configuration : LFE

  53. Text #1
  54. ID : 3
  55. Format : UTF-8
  56. Codec ID : S_TEXT/UTF8
  57. Codec ID/Info : UTF-8 Plain Text
  58. Duration : 1 h 44 min
  59. Bit rate : 78 b/s
  60. Count of elements : 1698
  61. Stream size : 60.3 KiB (0%)
  62. Language : English
  63. Default : No
  64. Forced : No

  65. Text #2
  66. ID : 4
  67. Format : UTF-8
  68. Codec ID : S_TEXT/UTF8
  69. Codec ID/Info : UTF-8 Plain Text
  70. Duration : 1 h 44 min
  71. Bit rate : 88 b/s
  72. Count of elements : 1906
  73. Stream size : 67.7 KiB (0%)
  74. Title : SDH
  75. Language : English
  76. Default : No
  77. Forced : No

  78. Text #3
  79. ID : 5
  80. Format : UTF-8
  81. Codec ID : S_TEXT/UTF8
  82. Codec ID/Info : UTF-8 Plain Text
  83. Duration : 1 h 49 min
  84. Bit rate : 111 b/s
  85. Count of elements : 1583
  86. Stream size : 89.8 KiB (0%)
  87. Language : Arabic
  88. Default : No
  89. Forced : No

  90. Text #4
  91. ID : 6
  92. Format : UTF-8
  93. Codec ID : S_TEXT/UTF8
  94. Codec ID/Info : UTF-8 Plain Text
  95. Duration : 1 h 43 min
  96. Bit rate : 62 b/s
  97. Count of elements : 1210
  98. Stream size : 47.2 KiB (0%)
  99. Language : Czech
  100. Default : No
  101. Forced : No

  102. Text #5
  103. ID : 7
  104. Format : UTF-8
  105. Codec ID : S_TEXT/UTF8
  106. Codec ID/Info : UTF-8 Plain Text
  107. Duration : 1 h 49 min
  108. Bit rate : 54 b/s
  109. Count of elements : 1504
  110. Stream size : 43.7 KiB (0%)
  111. Language : Danish
  112. Default : No
  113. Forced : No

  114. Text #6
  115. ID : 8
  116. Format : UTF-8
  117. Codec ID : S_TEXT/UTF8
  118. Codec ID/Info : UTF-8 Plain Text
  119. Duration : 1 h 44 min
  120. Bit rate : 59 b/s
  121. Count of elements : 1516
  122. Stream size : 45.5 KiB (0%)
  123. Language : German
  124. Default : No
  125. Forced : No
复制代码

斯宾塞的机密任务资源下载:
斯宾塞的机密任务 Spenser.Confidential.2020.1080p.NF.WEBRip.DDP5.1.Atmos.x264【4.53 GB】
斯宾塞的机密任务 Spenser.Confidential.2020.1080p.NF.WEBRip.DDP5.1.Atmos.x264-NTG.torrent (45.85 KB, 售价: 10 金币)
热门电影
关闭

站长通知上一条 /1 下一条

Copyright   ©2015-2016  4k群  Powered by©Discuz!  技术支持:4K群