[1080p资源] 刺猬索尼克1080p高清电影下载

[复制链接]
朱古力小酥酥 发表于 2020-3-12 08:55 | 显示全部楼层 |阅读模式
刺猬索尼克.jpg
导演: 杰夫·福勒
编剧: 范·罗比查乌克斯 / 埃文·萨瑟 / 乔什·米勒 / 帕特里克·凯西 / 奥伦·尤济尔 / 中裕司 / 大岛直人 / 安原弘和
主演: 詹姆斯·麦斯登 / 金·凯瑞 / 本·施瓦茨 / 提卡·森普特 / 娜塔莎·罗斯韦尔 / 亚当·佩里 / 李·马贾道布 / 尼尔·麦克唐纳 / 汤姆·巴特勒 / 弗兰克·C·特纳 / 梅洛德·诺西普·尼曼 / 珊农·陈-肯特 / 布拉德·凯利 / 尔芬娜·卢克 / 加里·切克 / 迈克尔·霍根 / 珍妮·克鲁蒂尔 / 贝利·斯科德里 / 杰夫·桑卡 / 丽莎·钱德勒 / 科琳·欧肖内希 / 利安娜·拉普
类型: 喜剧 / 动作 / 动画 / 冒险
制片国家/地区: 加拿大 / 日本 / 美国
语言: 英语
上映日期: 2020(中国大陆) / 2020-02-14(美国)
片长: 100分钟
又名: 音速小子(台) / 超音鼠大电影(港)

刺猬索尼克的剧情简介 · · · · · ·
  改编自世嘉公司出品的风靡全球的电子游戏。电影讲述了拥有音速奔跑能力的刺猬索尼克在地球上展开新生活的故事。索尼克和他的新朋友汤姆(詹姆斯·麦斯登 饰)联手保护地球,阻止邪恶的蛋头博士(金·凯瑞 饰)统治世界的计划。这部适合全家观看的电影还邀请了迪卡·桑普特参演,本·施瓦茨为索尼克配音。

刺猬索尼克资源信息:
  1. Video
  2. ID : 1
  3. Format : AVC
  4. Format/Info : Advanced Video Codec
  5. Format profile : High@L4.1
  6. Format settings : CABAC / 4 Ref Frames
  7. Format settings, CABAC : Yes
  8. Format settings, Reference frames : 4 frames
  9. Codec ID : V_MPEG4/ISO/AVC
  10. Duration : 1 h 39 min
  11. Bit rate : 4 369 kb/s
  12. Width : 1 920 pixels
  13. Height : 800 pixels
  14. Display aspect ratio : 2.40:1
  15. Frame rate mode : Constant
  16. Frame rate : 23.976 (24000/1001) FPS
  17. Color space : YUV
  18. Chroma subsampling : 4:2:0
  19. Bit depth : 8 bits
  20. Scan type : Progressive
  21. Bits/(Pixel*Frame) : 0.119
  22. Stream size : 3.00 GiB (94%)
  23. Title : Sonic.the.Hedgehog.2020.1080p.HDRip.x264.AAC2.0-STUTTERSHIT
  24. Writing library : x264 core 142 r2479 dd79a61
  25. Encoding settings : cabac=1 / ref=1 / deblock=1:0:0 / analyse=0x3:0x3 / me=dia / subme=1 / psy=1 / psy_rd=1.00:0.00 / mixed_ref=0 / me_range=16 / chroma_me=1 / trellis=0 / 8x8dct=1 / cqm=0 / deadzone=21,11 / fast_pskip=1 / chroma_qp_offset=0 / threads=24 / lookahead_threads=4 / sliced_threads=0 / nr=0 / decimate=1 / interlaced=0 / bluray_compat=0 / constrained_intra=0 / bframes=3 / b_pyramid=2 / b_adapt=1 / b_bias=0 / direct=1 / weightb=1 / open_gop=0 / weightp=1 / keyint=240 / keyint_min=24 / scenecut=40 / intra_refresh=0 / rc_lookahead=0 / rc=abr / mbtree=0 / bitrate=4369 / ratetol=1.0 / qcomp=0.60 / qpmin=0 / qpmax=69 / qpstep=4 / vbv_maxrate=62500 / vbv_bufsize=78125 / nal_hrd=none / filler=0 / ip_ratio=1.40 / pb_ratio=1.30 / aq=1:1.00
  26. Language : English
  27. Default : Yes
  28. Forced : No
  29. Color range : Limited
  30. Color primaries : BT.709
  31. Transfer characteristics : BT.709
  32. Matrix coefficients : BT.709

  33. Audio
  34. ID : 2
  35. Format : AAC LC
  36. Format/Info : Advanced Audio Codec Low Complexity
  37. Codec ID : A_AAC-2
  38. Duration : 1 h 39 min
  39. Bit rate : 256 kb/s
  40. Channel(s) : 2 channels
  41. Channel layout : L R
  42. Sampling rate : 48.0 kHz
  43. Frame rate : 46.875 FPS (1024 SPF)
  44. Compression mode : Lossy
  45. Stream size : 181 MiB (6%)
  46. Title : Sonic.the.Hedgehog.2020.1080p.HDRip.x264.AAC2.0-STUTTERSHIT
  47. Language : English
  48. Default : Yes
  49. Forced : No
复制代码

刺猬索尼克资源下载:
刺猬索尼克 Sonic.the.Hedgehog.2020.1080p.HDRip.x264.AAC2.0【3.18 GB】
刺猬索尼克 Sonic.the.Hedgehog.2020.1080p.HDRip.x264.AAC2.0-STUTTERSHIT.torrent (32.33 KB, 售价: 10 金币)
热门电影
关闭

站长通知上一条 /1 下一条

Copyright   ©2015-2016  4k群  Powered by©Discuz!  技术支持:4K群