[1080p资源] 新咒怨(美版)1080p高清电影下载

[复制链接]
朱古力小酥酥 发表于 2020-3-12 08:59 | 显示全部楼层 |阅读模式
新咒怨(美版).jpg
导演: 尼古拉斯·佩谢
编剧: 尼古拉斯·佩谢 / 杰夫·布勒 / 清水崇
主演: 安德丽亚·瑞斯波罗格 / 德米安·比齐尔 / 约翰·赵 / 林·沙烨 / 贝蒂·吉尔平 / 威廉姆·赛德勒 / 杰基·韦佛 / 塔拉·维斯特伍德 / 佐伊·费什 / 弗兰基·费森 / 南希·索瑞尔 / 乔尔·加兰 / 布拉德利·索茨基 / 埃内斯托·格里菲思
类型: 恐怖
制片国家/地区: 美国
语言: 英语
上映日期: 2020-01-03(美国)
片长: 93分钟
又名: 新美版咒怨 / 咒怨4(美版) / 怨咒(台)

新咒怨(美版)的剧情简介 · · · · · ·
  一名年轻的单亲妈妈兼警探莫顿发现郊区的一间房子遭到一个复仇怨灵所诅咒,这使进入房子内的人都会惨死。进入被诅咒的屋子中的她们必须设法从中救出自己和她的儿子,以免受怨灵的袭击。

新咒怨(美版)资源信息:
  1. Video
  2. ID : 1
  3. Format : AVC
  4. Format/Info : Advanced Video Codec
  5. Format profile : High@L4
  6. Format settings : CABAC / 2 Ref Frames
  7. Format settings, CABAC : Yes
  8. Format settings, Reference frames : 2 frames
  9. Codec ID : V_MPEG4/ISO/AVC
  10. Duration : 1 h 33 min
  11. Bit rate : 6 108 kb/s
  12. Width : 1 920 pixels
  13. Height : 1 080 pixels
  14. Display aspect ratio : 16:9
  15. Frame rate mode : Constant
  16. Frame rate : 23.976 (24000/1001) FPS
  17. Color space : YUV
  18. Chroma subsampling : 4:2:0
  19. Bit depth : 8 bits
  20. Scan type : Progressive
  21. Bits/(Pixel*Frame) : 0.123
  22. Stream size : 4.00 GiB (94%)
  23. Writing library : x264 core 155 r2901 7d0ff22
  24. Language : English
  25. Default : Yes
  26. Forced : No
  27. Color range : Limited
  28. Color primaries : BT.709
  29. Transfer characteristics : BT.709
  30. Matrix coefficients : BT.709

  31. Audio
  32. ID : 2
  33. Format : AC-3
  34. Format/Info : Audio Coding 3
  35. Commercial name : Dolby Digital
  36. Codec ID : A_AC3
  37. Duration : 1 h 33 min
  38. Bit rate mode : Constant
  39. Bit rate : 384 kb/s
  40. Channel(s) : 6 channels
  41. Channel layout : L R C LFE Ls Rs
  42. Sampling rate : 48.0 kHz
  43. Frame rate : 31.250 FPS (1536 SPF)
  44. Bit depth : 16 bits
  45. Compression mode : Lossy
  46. Stream size : 257 MiB (6%)
  47. Language : English
  48. Service kind : Complete Main
  49. Default : Yes
  50. Forced : No

  51. Text
  52. ID : 3
  53. Format : UTF-8
  54. Codec ID : S_TEXT/UTF8
  55. Codec ID/Info : UTF-8 Plain Text
  56. Duration : 1 h 25 min
  57. Bit rate : 30 b/s
  58. Count of elements : 738
  59. Stream size : 19.3 KiB (0%)
  60. Language : English
  61. Default : Yes
  62. Forced : No
复制代码

新咒怨(美版)资源下载:

新咒怨(美版) The.Grudge.2020.1080p.WEBRip.DD5.1.x264【4.25 GB】
新咒怨(美版) The.Grudge.2020.1080p.WEBRip.DD5.1.x264-CM.torrent (43.02 KB, 售价: 10 金币)
热门电影
关闭

站长通知上一条 /1 下一条

Copyright   ©2015-2016  4k群  Powered by©Discuz!  技术支持:4K群