[1080p资源] 小妇人1080p高清电影下载

[复制链接]
朱古力小酥酥 发表于 2020-3-12 09:02 | 显示全部楼层 |阅读模式
小妇人.jpg
导演: 格蕾塔·葛韦格
编剧: 格蕾塔·葛韦格 / 路易莎·梅·奥尔科特
主演: 西尔莎·罗南 / 艾玛·沃森 / 佛罗伦斯·珀 / 伊莱扎·斯坎伦 / 劳拉·邓恩 / 蒂莫西·柴勒梅德 / 梅丽尔·斯特里普 / 鲍勃·奥登科克 / 詹姆斯·诺顿 / 路易·加瑞尔 / 克里斯·库珀 / 崔西·莱茨 / 艾比·奎因 / 萨沙·弗若洛娃 / 莉莉·恩格勒特 / 爱德华德·弗莱彻 / 杰妮·霍蒂谢尔 / 多梅尼克·阿尔迪诺 / 汤姆·斯特拉特福 / 托马斯·马里亚诺 / 哈德莉·罗宾逊 / 杰米·加扎里安
类型: 剧情 / 爱情
官方网站: www.littlewomen.movie/
制片国家/地区: 美国
语言: 英语
上映日期: 2020(中国大陆) / 2019-12-25(美国)
片长: 135分钟
又名: 她们(台)

小妇人的剧情简介 · · · · · ·
  电影改编自世界名著《小妇人》,由奥斯卡提名最佳导演格雷塔.葛伟格执导,直击当代女性困惑。作为2020年颁奖季热门,影片聚齐两代神仙阵容“世纪大同框”——金球奖最佳女主“伯德小姐”西尔莎·罗南与屡获提名的超人气演员“甜茶”再度携手诠释错过的真爱,“赫敏”艾玛·沃森与“黑寡妇师妹”弗洛伦斯·皮尤联袂呈现手足情深,三获奥斯卡的老戏骨梅尔·斯特里普与四次金球奖得主劳拉·邓恩倾力加盟。导演葛伟格用细腻又颇具新意的叙事手法,为这部经典文学名作带来充满活力的现代风格。

小妇人资源信息:
  1. Video
  2. ID : 1
  3. Format : AVC
  4. Format/Info : Advanced Video Codec
  5. Format profile : High@L4
  6. Format settings : CABAC / 4 Ref Frames
  7. Format settings, CABAC : Yes
  8. Format settings, Reference frames : 4 frames
  9. Codec ID : V_MPEG4/ISO/AVC
  10. Duration : 2 h 14 min
  11. Bit rate mode : Constant
  12. Bit rate : 8 919 kb/s
  13. Nominal bit rate : 10 000 kb/s
  14. Width : 1 920 pixels
  15. Height : 1 040 pixels
  16. Display aspect ratio : 1.85:1
  17. Frame rate mode : Constant
  18. Frame rate : 23.976 (24000/1001) FPS
  19. Color space : YUV
  20. Chroma subsampling : 4:2:0
  21. Bit depth : 8 bits
  22. Scan type : Progressive
  23. Bits/(Pixel*Frame) : 0.186
  24. Stream size : 8.40 GiB (93%)
  25. Default : Yes
  26. Forced : No
  27. Color range : Limited
  28. Color primaries : BT.709
  29. Transfer characteristics : BT.709
  30. Matrix coefficients : BT.709

  31. Audio
  32. ID : 2
  33. Format : E-AC-3
  34. Format/Info : Enhanced AC-3
  35. Commercial name : Dolby Digital Plus
  36. Codec ID : A_EAC3
  37. Duration : 2 h 14 min
  38. Bit rate mode : Constant
  39. Bit rate : 640 kb/s
  40. Channel(s) : 6 channels
  41. Channel layout : L R C LFE Ls Rs
  42. Sampling rate : 48.0 kHz
  43. Frame rate : 31.250 FPS (1536 SPF)
  44. Compression mode : Lossy
  45. Stream size : 617 MiB (7%)
  46. Language : English
  47. Service kind : Complete Main
  48. Default : Yes
  49. Forced : No

  50. Text #1
  51. ID : 3
  52. Format : UTF-8
  53. Codec ID : S_TEXT/UTF8
  54. Codec ID/Info : UTF-8 Plain Text
  55. Duration : 2 h 5 min
  56. Bit rate : 66 b/s
  57. Count of elements : 1911
  58. Stream size : 60.9 KiB (0%)
  59. Language : English
  60. Default : No
  61. Forced : No

  62. Text #2
  63. ID : 4
  64. Format : UTF-8
  65. Codec ID : S_TEXT/UTF8
  66. Codec ID/Info : UTF-8 Plain Text
  67. Duration : 2 h 8 min
  68. Bit rate : 69 b/s
  69. Count of elements : 2145
  70. Stream size : 65.6 KiB (0%)
  71. Title : SDH
  72. Language : English
  73. Default : No
  74. Forced : No

  75. Menu
  76. 00:00:00.000 : en:Studio Logos
  77. 00:00:57.000 : en:Quote
  78. 00:01:05.000 : en:Jo pitches a story
  79. 00:04:41.000 : en:Title Sequence
  80. 00:04:44.000 : en:Distracted writing
  81. 00:06:02.000 : en:Amy runs into an old friend
  82. 00:08:38.000 : en:Meg buys some fabric
  83. 00:09:40.000 : en:Beth plays the piano
  84. 00:10:09.000 : en:A night on the town
  85. 00:17:58.000 : en:A gift from Friedrich
  86. 00:19:17.000 : en:Laurie embarasses Amy
  87. 00:21:27.000 : en:Friedrich critiques Jo\'s writing
  88. 00:24:37.000 : en:Christmas morning
  89. 00:33:32.000 : en:Friedrich inquires about Jo
  90. 00:33:51.000 : en:Making your way in the world
  91. 00:37:01.000 : en:Amy acts out at school
  92. 00:40:42.000 : en:Letting Laurie into the group
  93. 00:43:23.000 : en:Jo returns home
  94. 00:44:39.000 : en:Amy takes revenge against Jo
  95. 00:53:21.000 : en:Attending a debutante ball
  96. 01:01:22.000 : en:Meg wants nice things
  97. 01:03:13.000 : en:Amy wants more from the world
  98. 01:07:27.000 : en:A day at the beach
  99. 01:10:05.000 : en:Supporting war efforts
  100. 01:13:34.000 : en:Laurie confesses to Amy
  101. 01:16:24.000 : en:A gift for Beth
  102. 01:22:02.000 : en:Amy is their last hope
  103. 01:24:28.000 : en:Fighting off sickness
  104. 01:31:19.000 : en:Not everyone is suited for marriage
  105. 01:39:53.000 : en:The sting of loneliness
  106. 01:43:02.000 : en:Husband and wife
  107. 01:49:37.000 : en:A life without Beth
  108. 01:50:45.000 : en:A story for Beth
  109. 01:54:21.000 : en:A gift from Aunt March
  110. 01:56:03.000 : en:An unexpected visitor
  111. 02:01:37.000 : en:A story with fans
  112. 02:02:09.000 : en:A change in the ending
  113. 02:06:21.000 : en:A celebration of a life well lived
  114. 02:09:48.000 : en:End Credits
复制代码

小妇人资源下载:

小妇人 Little.Women.2019.1080p.AMZN.WEBRip.DDP5.1.x264【9.01 GB】
小妇人 Little.Women.2019.1080p.AMZN.WEBRip.DDP5.1.x264-TEPES.torrent (45.57 KB, 售价: 15 金币)
热门电影
关闭

站长通知上一条 /1 下一条

Copyright   ©2015-2016  4k群  Powered by©Discuz!  技术支持:4K群