[1080p资源] 爆笑虫子之冒险岛大电影The.Larva.Island.Movie.2020.1080p高清电影下载

[复制链接]
朱古力小酥酥 发表于 2020-7-26 22:56 | 显示全部楼层 |阅读模式

导演: Byoung-Wook Ahn
主演: 洪范基 / Kang Shi Hyun / Eddy Lee
类型: 动画
制片国家/地区: 韩国
语言: 英语
上映日期: 2020-07-23(美国)
片长: 89分钟
又名: Larva Island: Der Film

爆笑虫子之冒险岛大电影的剧情简介 · · · · · ·
  In this movie sequel to the hit series, Chuck returns home and talks to a reporter about life on the island with zany larva pals Red and Yellow

爆笑虫子之冒险岛大电影The.Larva.Island.Movie.2020.1080p.NF.WEBRip.DDP2.0.x264高清电影信息
  1. Video
  2. ID : 1
  3. Format : AVC
  4. Format/Info : Advanced Video Codec
  5. Format profile : Main@L4
  6. Format settings : CABAC / 3 Ref Frames
  7. Format settings, CABAC : Yes
  8. Format settings, Reference frames : 3 frames
  9. Codec ID : V_MPEG4/ISO/AVC
  10. Duration : 1 h 30 min
  11. Bit rate mode : Variable
  12. Bit rate : 6 810 kb/s
  13. Maximum bit rate : 10.2 Mb/s
  14. Width : 1 920 pixels
  15. Height : 1 080 pixels
  16. Display aspect ratio : 16:9
  17. Frame rate mode : Constant
  18. Frame rate : 24.000 FPS
  19. Color space : YUV
  20. Chroma subsampling : 4:2:0
  21. Bit depth : 8 bits
  22. Scan type : Progressive
  23. Bits/(Pixel*Frame) : 0.137
  24. Stream size : 4.22 GiB (98%)
  25. Writing library : x264 core 148 r2721 6d200cf
  26. Encoding settings : cabac=1 / ref=3 / deblock=1:0:0 / analyse=0x1:0x111 / me=umh / subme=10 / psy=1 / psy_rd=1.00:0.00 / mixed_ref=1 / me_range=24 / chroma_me=1 / trellis=2 / 8x8dct=0 / cqm=0 / deadzone=21,11 / fast_pskip=1 / chroma_qp_offset=-2 / threads=6 / lookahead_threads=1 / sliced_threads=0 / nr=0 / decimate=1 / interlaced=0 / bluray_compat=0 / stitchable=1 / constrained_intra=0 / bframes=2 / b_pyramid=0 / b_adapt=2 / b_bias=0 / direct=3 / weightb=1 / open_gop=0 / weightp=2 / keyint=250 / keyint_min=24 / scenecut=0 / intra_refresh=0 / rc_lookahead=48 / rc=2pass / mbtree=1 / bitrate=6810 / ratetol=1.0 / qcomp=0.50 / qpmin=6 / qpmax=51 / qpstep=4 / cplxblur=20.0 / qblur=0.5 / vbv_maxrate=10215 / vbv_bufsize=13620 / nal_hrd=vbr / filler=0 / ip_ratio=1.40 / aq=1:1.00
  27. Default : Yes
  28. Forced : No

  29. Audio
  30. ID : 2
  31. Format : E-AC-3
  32. Format/Info : Enhanced AC-3
  33. Commercial name : Dolby Digital Plus
  34. Codec ID : A_EAC3
  35. Duration : 1 h 30 min
  36. Bit rate mode : Constant
  37. Bit rate : 128 kb/s
  38. Channel(s) : 2 channels
  39. Channel layout : L R
  40. Sampling rate : 48.0 kHz
  41. Frame rate : 31.250 FPS (1536 SPF)
  42. Compression mode : Lossy
  43. Stream size : 83.3 MiB (2%)
  44. Title : English
  45. Language : English
  46. Service kind : Complete Main
  47. Default : Yes
  48. Forced : No

  49. Text
  50. ID : 3
  51. Format : UTF-8
  52. Codec ID : S_TEXT/UTF8
  53. Codec ID/Info : UTF-8 Plain Text
  54. Duration : 1 h 28 min
  55. Bit rate : 63 b/s
  56. Count of elements : 2177
  57. Stream size : 41.5 KiB (0%)
  58. Title : English
  59. Language : English
  60. Default : No
  61. Forced : No
复制代码

爆笑虫子之冒险岛大电影The.Larva.Island.Movie.2020.1080p.NF.WEBRip.DDP2.0.x264高清电影下载

爆笑虫子之冒险岛大电影The.Larva.Island.Movie.2020.1080p.NF.WEBRip.DDP2.0.x264【4.30 GB】
爆笑虫子之冒险岛大电影 The.Larva.Island.Movie.2020.1080p.NF.WEBRip.DDP2.0.x264-CM.torrent (43.58 KB, 售价: 10 金币)
热门电影
关闭

站长通知上一条 /1 下一条

Copyright   ©2015-2016  4k群  Powered by©Discuz!  技术支持:4K群