魔法训练营4k电影下载

[复制链接]
朱古力小酥酥 发表于 2020-9-11 22:17 | 显示全部楼层 |阅读模式
电影频道
电影封面:
片  名: 魔法训练营4k
国  家: 美国   
电影分类: 喜剧   奇幻   
分 辨 率: 4K(3840x2160)    
画质标准: HDR    
电影声道: 其他
资源大小: 11.93 GB
剧情简介: 故事讲述德维尼饰演的银行家事业失败、情场失意,他试图通过神奇的“魔法训练营”回到自己的少年时期,找回自信,重塑人生。
魔鬼训练营/魔法训练营4k Magic.Camp.2020.HDR.2160p.WEB.h265-4k电影信息
  1. Video
  2. ID : 1
  3. Format : HEVC
  4. Format/Info : High Efficiency Video Coding
  5. Format profile : Main 10@L5@High
  6. Codec ID : V_MPEGH/ISO/HEVC
  7. Duration : 1 h 37 min
  8. Bit rate : 16.5 Mb/s
  9. Width : 3 840 pixels
  10. Height : 2 160 pixels
  11. Display aspect ratio : 16:9
  12. Frame rate mode : Constant
  13. Frame rate : 23.976 (24000/1001) FPS
  14. Color space : YUV
  15. Chroma subsampling : 4:2:0
  16. Bit depth : 10 bits
  17. Bits/(Pixel*Frame) : 0.083
  18. Stream size : 11.3 GiB (96%)
  19. Language : English
  20. Default : Yes
  21. Forced : No
  22. Color range : Limited
  23. Color primaries : BT.2020
  24. Transfer characteristics : PQ
  25. Matrix coefficients : BT.2020 non-constant

  26. Audio
  27. ID : 2
  28. Format : E-AC-3 JOC
  29. Format/Info : Enhanced AC-3 with Joint Object Coding
  30. Commercial name : Dolby Digital Plus with Dolby Atmos
  31. Codec ID : A_EAC3
  32. Duration : 1 h 37 min
  33. Bit rate mode : Constant
  34. Bit rate : 768 kb/s
  35. Channel(s) : 6 channels
  36. Channel layout : L R C LFE Ls Rs
  37. Sampling rate : 48.0 kHz
  38. Frame rate : 31.250 FPS (1536 SPF)
  39. Compression mode : Lossy
  40. Stream size : 538 MiB (4%)
  41. Language : English
  42. Service kind : Complete Main
  43. Default : Yes
  44. Forced : No
  45. Complexity index : 14
  46. Number of dynamic objects : 4
  47. Bed channel count : 10 channels
  48. Bed channel configuration : L R C LFE Ls Rs Lb Rb Tsl Tsr

  49. Text #1
  50. ID : 3
  51. Format : UTF-8
  52. Codec ID : S_TEXT/UTF8
  53. Codec ID/Info : UTF-8 Plain Text
  54. Duration : 1 h 34 min
  55. Bit rate : 76 b/s
  56. Count of elements : 1519
  57. Stream size : 53.2 KiB (0%)
  58. Title : Dansk
  59. Language : Danish
  60. Default : No
  61. Forced : No

  62. Text #2
  63. ID : 4
  64. Format : UTF-8
  65. Codec ID : S_TEXT/UTF8
  66. Codec ID/Info : UTF-8 Plain Text
  67. Duration : 1 h 34 min
  68. Bit rate : 75 b/s
  69. Count of elements : 1477
  70. Stream size : 52.5 KiB (0%)
  71. Title : Deutsch
  72. Language : German
  73. Default : No
  74. Forced : No

  75. Text #3
  76. ID : 5
  77. Format : UTF-8
  78. Codec ID : S_TEXT/UTF8
  79. Codec ID/Info : UTF-8 Plain Text
  80. Duration : 1 h 35 min
  81. Bit rate : 87 b/s
  82. Count of elements : 1701
  83. Stream size : 61.7 KiB (0%)
  84. Title : English (SDH)
  85. Language : English
  86. Default : No
  87. Forced : No

  88. Text #4
  89. ID : 6
  90. Format : UTF-8
  91. Codec ID : S_TEXT/UTF8
  92. Codec ID/Info : UTF-8 Plain Text
  93. Duration : 1 h 34 min
  94. Bit rate : 83 b/s
  95. Count of elements : 1503
  96. Stream size : 58.2 KiB (0%)
  97. Title : Español
  98. Language : Spanish
  99. Default : No
  100. Forced : No

  101. Text #5
  102. ID : 7
  103. Format : UTF-8
  104. Codec ID : S_TEXT/UTF8
  105. Codec ID/Info : UTF-8 Plain Text
  106. Duration : 1 h 34 min
  107. Bit rate : 75 b/s
  108. Count of elements : 1514
  109. Stream size : 52.1 KiB (0%)
  110. Title : Español (Latinoamericano)
  111. Language : Spanish
  112. Default : No
  113. Forced : No

  114. Text #6
  115. ID : 8
  116. Format : UTF-8
  117. Codec ID : S_TEXT/UTF8
  118. Codec ID/Info : UTF-8 Plain Text
  119. Duration : 1 h 31 min
  120. Bit rate : 65 b/s
  121. Count of elements : 1514
  122. Stream size : 43.7 KiB (0%)
  123. Title : Suomi
  124. Language : Finnish
  125. Default : No
  126. Forced : No

  127. Text #7
  128. ID : 9
  129. Format : UTF-8
  130. Codec ID : S_TEXT/UTF8
  131. Codec ID/Info : UTF-8 Plain Text
  132. Duration : 1 h 34 min
  133. Bit rate : 74 b/s
  134. Count of elements : 1496
  135. Stream size : 51.9 KiB (0%)
  136. Title : Français
  137. Language : French
  138. Default : No
  139. Forced : No

  140. Text #8
  141. ID : 10
  142. Format : UTF-8
  143. Codec ID : S_TEXT/UTF8
  144. Codec ID/Info : UTF-8 Plain Text
  145. Duration : 1 h 34 min
  146. Bit rate : 82 b/s
  147. Count of elements : 1511
  148. Stream size : 57.4 KiB (0%)
  149. Title : Italiano
  150. Language : Italian
  151. Default : No
  152. Forced : No

  153. Text #9
  154. ID : 11
  155. Format : UTF-8
  156. Codec ID : S_TEXT/UTF8
  157. Codec ID/Info : UTF-8 Plain Text
  158. Duration : 1 h 34 min
  159. Bit rate : 60 b/s
  160. Count of elements : 1281
  161. Stream size : 41.9 KiB (0%)
  162. Title : Nederlands
  163. Language : Dutch
  164. Default : No
  165. Forced : No

  166. Text #10
  167. ID : 12
  168. Format : UTF-8
  169. Codec ID : S_TEXT/UTF8
  170. Codec ID/Info : UTF-8 Plain Text
  171. Duration : 1 h 34 min
  172. Bit rate : 66 b/s
  173. Count of elements : 1518
  174. Stream size : 46.0 KiB (0%)
  175. Title : Norsk
  176. Language : Norwegian
  177. Default : No
  178. Forced : No

  179. Text #11
  180. ID : 13
  181. Format : UTF-8
  182. Codec ID : S_TEXT/UTF8
  183. Codec ID/Info : UTF-8 Plain Text
  184. Duration : 1 h 37 min
  185. Bit rate : 70 b/s
  186. Count of elements : 1507
  187. Stream size : 50.4 KiB (0%)
  188. Title : Polski
  189. Language : Polish
  190. Default : No
  191. Forced : No

  192. Text #12
  193. ID : 14
  194. Format : UTF-8
  195. Codec ID : S_TEXT/UTF8
  196. Codec ID/Info : UTF-8 Plain Text
  197. Duration : 1 h 34 min
  198. Bit rate : 74 b/s
  199. Count of elements : 1485
  200. Stream size : 51.5 KiB (0%)
  201. Title : Português (Brasil)
  202. Language : Portuguese
  203. Default : No
  204. Forced : No

  205. Text #13
  206. ID : 15
  207. Format : UTF-8
  208. Codec ID : S_TEXT/UTF8
  209. Codec ID/Info : UTF-8 Plain Text
  210. Duration : 1 h 37 min
  211. Bit rate : 81 b/s
  212. Count of elements : 1515
  213. Stream size : 57.8 KiB (0%)
  214. Title : Português
  215. Language : Portuguese
  216. Default : No
  217. Forced : No

  218. Text #14
  219. ID : 16
  220. Format : UTF-8
  221. Codec ID : S_TEXT/UTF8
  222. Codec ID/Info : UTF-8 Plain Text
  223. Duration : 1 h 34 min
  224. Bit rate : 78 b/s
  225. Count of elements : 1519
  226. Stream size : 54.7 KiB (0%)
  227. Title : Svenska
  228. Language : Swedish
  229. Default : No
  230. Forced : No
复制代码

魔鬼训练营/魔法训练营4k Magic.Camp.2020.HDR.2160p.WEB.h265-4k电影下载

魔法训练营4k Magic.Camp.2020.HDR.2160p.WEB.h265【11.93 GB】
魔法训练营4k Magic.Camp.2020.HDR.2160p.WEB.h265-WALT.torrent (60.32 KB, 售价: 10 金币)
热门电影
关闭

站长通知上一条 /1 下一条

Copyright   ©2015-2016  4k群  Powered by©Discuz!  技术支持:4K群